  0
SECTION
  2
HEADER
  9
$ACADVER
  1
AC1027
  9
$ACADMAINTVER
 70
   125
  9
$DWGCODEPAGE
  3
ANSI_1252
  9
$LASTSAVEDBY
  1
danielle
  9
$REQUIREDVERSIONS
160
                 0
  9
$INSBASE
 10
0.0
 20
0.0
 30
0.0
  9
$EXTMIN
 10
-7.412140354949912
 20
-5.510625792532308
 30
0.0
  9
$EXTMAX
 10
7.248407881984945
 20
9.647234174636466
 30
0.0
  9
$LIMMIN
 10
-3.821882638888888
 20
-5.256784722222221
  9
$LIMMAX
 10
3.821882638888888
 20
5.256784722222221
  9
$ORTHOMODE
 70
     0
  9
$REGENMODE
 70
     1
  9
$FILLMODE
 70
     1
  9
$QTEXTMODE
 70
     0
  9
$MIRRTEXT
 70
     0
  9
$LTSCALE
 40
1.0
  9
$ATTMODE
 70
     1
  9
$TEXTSIZE
 40
0.093
  9
$TRACEWID
 40
0.05
  9
$TEXTSTYLE
  7
Standard
  9
$CLAYER
  8
0
  9
$CELTYPE
  6
ByLayer
  9
$CECOLOR
 62
   256
  9
$CELTSCALE
 40
1.0
  9
$DISPSILH
 70
     0
  9
$DIMSCALE
 40
1.0
  9
$DIMASZ
 40
0.18
  9
$DIMEXO
 40
0.0625
  9
$DIMDLI
 40
0.38
  9
$DIMRND
 40
0.0
  9
$DIMDLE
 40
0.0
  9
$DIMEXE
 40
0.18
  9
$DIMTP
 40
0.0
  9
$DIMTM
 40
0.0
  9
$DIMTXT
 40
0.18
  9
$DIMCEN
 40
0.09
  9
$DIMTSZ
 40
0.0
  9
$DIMTOL
 70
     0
  9
$DIMLIM
 70
     0
  9
$DIMTIH
 70
     1
  9
$DIMTOH
 70
     1
  9
$DIMSE1
 70
     0
  9
$DIMSE2
 70
     0
  9
$DIMTAD
 70
     0
  9
$DIMZIN
 70
     0
  9
$DIMBLK
  1

  9
$DIMASO
 70
     1
  9
$DIMSHO
 70
     1
  9
$DIMPOST
  1

  9
$DIMAPOST
  1

  9
$DIMALT
 70
     0
  9
$DIMALTD
 70
     2
  9
$DIMALTF
 40
25.4
  9
$DIMLFAC
 40
1.0
  9
$DIMTOFL
 70
     0
  9
$DIMTVP
 40
0.0
  9
$DIMTIX
 70
     0
  9
$DIMSOXD
 70
     0
  9
$DIMSAH
 70
     0
  9
$DIMBLK1
  1

  9
$DIMBLK2
  1

  9
$DIMSTYLE
  2
Standard
  9
$DIMCLRD
 70
     0
  9
$DIMCLRE
 70
     0
  9
$DIMCLRT
 70
     0
  9
$DIMTFAC
 40
1.0
  9
$DIMGAP
 40
0.09
  9
$DIMJUST
 70
     0
  9
$DIMSD1
 70
     0
  9
$DIMSD2
 70
     0
  9
$DIMTOLJ
 70
     1
  9
$DIMTZIN
 70
     0
  9
$DIMALTZ
 70
     0
  9
$DIMALTTZ
 70
     0
  9
$DIMUPT
 70
     0
  9
$DIMDEC
 70
     4
  9
$DIMTDEC
 70
     4
  9
$DIMALTU
 70
     2
  9
$DIMALTTD
 70
     2
  9
$DIMTXSTY
  7
Standard
  9
$DIMAUNIT
 70
     0
  9
$DIMADEC
 70
     0
  9
$DIMALTRND
 40
0.0
  9
$DIMAZIN
 70
     0
  9
$DIMDSEP
 70
     0
  9
$DIMATFIT
 70
     3
  9
$DIMFRAC
 70
     0
  9
$DIMLDRBLK
  1

  9
$DIMLUNIT
 70
     2
  9
$DIMLWD
 70
     0
  9
$DIMLWE
 70
     0
  9
$DIMTMOVE
 70
     0
  9
$DIMFXL
 40
1.0
  9
$DIMFXLON
 70
     0
  9
$DIMJOGANG
 40
0.7853981633974483
  9
$DIMTFILL
 70
     0
  9
$DIMTFILLCLR
 70
     0
  9
$DIMARCSYM
 70
     0
  9
$DIMLTYPE
  6

  9
$DIMLTEX1
  6

  9
$DIMLTEX2
  6

  9
$DIMTXTDIRECTION
 70
     0
  9
$LUNITS
 70
     2
  9
$LUPREC
 70
     4
  9
$SKETCHINC
 40
0.1
  9
$FILLETRAD
 40
0.0
  9
$AUNITS
 70
     0
  9
$AUPREC
 70
     0
  9
$MENU
  1
acad
  9
$ELEVATION
 40
0.0
  9
$PELEVATION
 40
0.0
  9
$THICKNESS
 40
0.0
  9
$LIMCHECK
 70
     0
  9
$CHAMFERA
 40
0.0
  9
$CHAMFERB
 40
0.0
  9
$CHAMFERC
 40
0.0
  9
$CHAMFERD
 40
0.0
  9
$SKPOLY
 70
     0
  9
$TDCREATE
 40
2414622.957627315
  9
$TDUCREATE
 40
10817209.81922416
  9
$TDUPDATE
 40
2460509.712847222
  9
$TDUUPDATE
 40
2460509.879513889
  9
$TDINDWG
 40
5.5477592477
  9
$TDUSRTIMER
 40
5.5477592245
  9
$USRTIMER
 70
     1
  9
$ANGBASE
 50
0.0
  9
$ANGDIR
 70
     0
  9
$PDMODE
 70
     0
  9
$PDSIZE
 40
0.0
  9
$PLINEWID
 40
0.0
  9
$SPLFRAME
 70
     0
  9
$SPLINETYPE
 70
     6
  9
$SPLINESEGS
 70
     8
  9
$HANDSEED
  5
F6E9
  9
$SURFTAB1
 70
     6
  9
$SURFTAB2
 70
     6
  9
$SURFTYPE
 70
     6
  9
$SURFU
 70
     6
  9
$SURFV
 70
     6
  9
$UCSBASE
  2

  9
$UCSNAME
  2

  9
$UCSORG
 10
0.0
 20
0.0
 30
0.0
  9
$UCSXDIR
 10
1.0
 20
0.0
 30
0.0
  9
$UCSYDIR
 10
0.0
 20
1.0
 30
0.0
  9
$UCSORTHOREF
  2

  9
$UCSORTHOVIEW
 70
     0
  9
$UCSORGTOP
 10
0.0
 20
0.0
 30
0.0
  9
$UCSORGBOTTOM
 10
0.0
 20
0.0
 30
0.0
  9
$UCSORGLEFT
 10
0.0
 20
0.0
 30
0.0
  9
$UCSORGRIGHT
 10
0.0
 20
0.0
 30
0.0
  9
$UCSORGFRONT
 10
0.0
 20
0.0
 30
0.0
  9
$UCSORGBACK
 10
0.0
 20
0.0
 30
0.0
  9
$PUCSBASE
  2

  9
$PUCSNAME
  2

  9
$PUCSORG
 10
0.0
 20
0.0
 30
0.0
  9
$PUCSXDIR
 10
1.0
 20
0.0
 30
0.0
  9
$PUCSYDIR
 10
0.0
 20
1.0
 30
0.0
  9
$PUCSORTHOREF
  2

  9
$PUCSORTHOVIEW
 70
     0
  9
$PUCSORGTOP
 10
0.0
 20
0.0
 30
0.0
  9
$PUCSORGBOTTOM
 10
0.0
 20
0.0
 30
0.0
  9
$PUCSORGLEFT
 10
0.0
 20
0.0
 30
0.0
  9
$PUCSORGRIGHT
 10
0.0
 20
0.0
 30
0.0
  9
$PUCSORGFRONT
 10
0.0
 20
0.0
 30
0.0
  9
$PUCSORGBACK
 10
0.0
 20
0.0
 30
0.0
  9
$USERI1
 70
     0
  9
$USERI2
 70
     0
  9
$USERI3
 70
     0
  9
$USERI4
 70
     0
  9
$USERI5
 70
     0
  9
$USERR1
 40
0.0
  9
$USERR2
 40
0.0
  9
$USERR3
 40
0.0
  9
$USERR4
 40
0.0
  9
$USERR5
 40
0.0
  9
$WORLDVIEW
 70
     1
  9
$SHADEDGE
 70
     3
  9
$SHADEDIF
 70
    70
  9
$TILEMODE
 70
     0
  9
$MAXACTVP
 70
    16
  9
$PINSBASE
 10
0.0
 20
0.0
 30
0.0
  9
$PLIMCHECK
 70
     0
  9
$PEXTMIN
 10
-2.534614727902892
 20
0.6160000287453986
 30
0.0
  9
$PEXTMAX
 10
5.645681900551635
 20
11.29008111593019
 30
0.0
  9
$PLIMMIN
 10
-2.659614726025578
 20
0.4910000306227066
  9
$PLIMMAX
 10
5.840385033678527
 20
11.49099979032681
  9
$UNITMODE
 70
     0
  9
$VISRETAIN
 70
     0
  9
$PLINEGEN
 70
     1
  9
$PSLTSCALE
 70
     0
  9
$TREEDEPTH
 70
  3020
  9
$CMLSTYLE
  2
Standard
  9
$CMLJUST
 70
     0
  9
$CMLSCALE
 40
1.0
  9
$PROXYGRAPHICS
 70
     0
  9
$MEASUREMENT
 70
     0
  9
$CELWEIGHT
370
     0
  9
$ENDCAPS
280
     0
  9
$JOINSTYLE
280
     0
  9
$LWDISPLAY
290
     0
  9
$INSUNITS
 70
     0
  9
$HYPERLINKBASE
  1

  9
$STYLESHEET
  1

  9
$XEDIT
290
     1
  9
$CEPSNTYPE
380
     0
  9
$PSTYLEMODE
290
     0
  9
$FINGERPRINTGUID
  2

  9
$VERSIONGUID
  2
{3A002015-46E3-844D-98BE-BD13C07E13C3}
  9
$EXTNAMES
290
     1
  9
$PSVPSCALE
 40
0.0
  9
$OLESTARTUP
290
     0
  9
$SORTENTS
280
   127
  9
$INDEXCTL
280
     0
  9
$HIDETEXT
280
     0
  9
$XCLIPFRAME
280
     2
  9
$HALOGAP
280
     0
  9
$OBSCOLOR
 70
   257
  9
$OBSLTYPE
280
     0
  9
$INTERSECTIONDISPLAY
280
     0
  9
$INTERSECTIONCOLOR
 70
   257
  9
$DIMASSOC
280
     1
  9
$PROJECTNAME
  1

  9
$CAMERADISPLAY
290
     0
  9
$LENSLENGTH
 40
50.0
  9
$CAMERAHEIGHT
 40
0.0
  9
$STEPSPERSEC
 40
2.0
  9
$STEPSIZE
 40
6.0
  9
$3DDWFPREC
 40
2.0
  9
$PSOLWIDTH
 40
0.25
  9
$PSOLHEIGHT
 40
4.0
  9
$LOFTANG1
 40
1.570796326794896
  9
$LOFTANG2
 40
1.570796326794896
  9
$LOFTMAG1
 40
0.0
  9
$LOFTMAG2
 40
0.0
  9
$LOFTPARAM
 70
     7
  9
$LOFTNORMALS
280
     1
  9
$LATITUDE
 40
37.795
  9
$LONGITUDE
 40
-122.394
  9
$NORTHDIRECTION
 40
0.0
  9
$TIMEZONE
 70
 -8000
  9
$LIGHTGLYPHDISPLAY
280
     1
  9
$TILEMODELIGHTSYNCH
280
     1
  9
$CMATERIAL
347
5FA1
  9
$SOLIDHIST
280
     0
  9
$SHOWHIST
280
     1
  9
$DWFFRAME
280
     2
  9
$DGNFRAME
280
     0
  9
$REALWORLDSCALE
290
     1
  9
$INTERFERECOLOR
 62
     1
  9
$INTERFEREOBJVS
345
5FC3
  9
$INTERFEREVPVS
346
6655
  9
$CSHADOW
280
     0
  9
$SHADOWPLANELOCATION
 40
0.0
  0
ENDSEC
  0
SECTION
  2
CLASSES
  0
CLASS
  1
IMAGE
  2
AcDbRasterImage
  3
ISM
 90
     2175
 91
        0
280
     0
281
     1
  0
CLASS
  1
DICTIONARYVAR
  2
AcDbDictionaryVar
  3
ObjectDBX Classes
 90
        0
 91
        9
280
     0
281
     0
  0
CLASS
  1
RASTERVARIABLES
  2
AcDbRasterVariables
  3
ISM
 90
        0
 91
        1
280
     0
281
     0
  0
CLASS
  1
IMAGEDEF
  2
AcDbRasterImageDef
  3
ISM
 90
        0
 91
        0
280
     0
281
     0
  0
CLASS
  1
IMAGEDEF_REACTOR
  2
AcDbRasterImageDefReactor
  3
ISM
 90
        1
 91
        0
280
     0
281
     0
  0
CLASS
  1
IDBUFFER
  2
AcDbIdBuffer
  3
ObjectDBX Classes
 90
        0
 91
        0
280
     0
281
     0
  0
CLASS
  1
SPATIAL_FILTER
  2
AcDbSpatialFilter
  3
ObjectDBX Classes
 90
        0
 91
        0
280
     0
281
     0
  0
CLASS
  1
SORTENTSTABLE
  2
AcDbSortentsTable
  3
ObjectDBX Classes
 90
        0
 91
        2
280
     0
281
     0
  0
CLASS
  1
LAYER_INDEX
  2
AcDbLayerIndex
  3
ObjectDBX Classes
 90
        0
 91
        0
280
     0
281
     0
  0
CLASS
  1
SPATIAL_INDEX
  2
AcDbSpatialIndex
  3
ObjectDBX Classes
 90
        0
 91
        0
280
     0
281
     0
  0
CLASS
  1
OBJECT_PTR
  2
CAseDLPNTableRecord
  3
"ASE-LPNTableRecord"
 90
        1
 91
        0
280
     0
281
     0
  0
CLASS
  1
PLOTSETTINGS
  2
AcDbPlotSettings
  3
ObjectDBX Classes
 90
        0
 91
        0
280
     0
281
     0
  0
CLASS
  1
ACDBDICTIONARYWDFLT
  2
AcDbDictionaryWithDefault
  3
ObjectDBX Classes
 90
        0
 91
        1
280
     0
281
     0
  0
CLASS
  1
WIPEOUT
  2
AcDbWipeout
  3
WipeOut|Product Desc: Object Enabler for WipeOut entity | Company: Autodesk, Inc. | WEB Address: www.autodesk.com
 90
     2175
 91
        0
280
     0
281
     1
  0
CLASS
  1
WIPEOUTVARIABLES
  2
AcDbWipeoutVariables
  3
"WipeOut|Product Desc:     WipeOut Dbx Application|Company:          Autodesk, Inc.|WEB Address:      www.autodesk.com"
 90
        0
 91
        1
280
     0
281
     0
  0
CLASS
  1
RTEXT
  2
RText
  3
RText|AutoCAD Express Tool|expresstools@autodesk.com
 90
        0
 91
        0
280
     0
281
     1
  0
CLASS
  1
ARCALIGNEDTEXT
  2
AcDbArcAlignedText
  3
ATEXT|AutoCAD Express Tool|expresstools@autodesk.com
 90
        0
 91
        0
280
     0
281
     1
  0
CLASS
  1
TABLESTYLE
  2
AcDbTableStyle
  3
ObjectDBX Classes
 90
     4095
 91
        1
280
     0
281
     0
  0
CLASS
  1
MATERIAL
  2
AcDbMaterial
  3
ObjectDBX Classes
 90
     1153
 91
        3
280
     0
281
     0
  0
CLASS
  1
VISUALSTYLE
  2
AcDbVisualStyle
  3
ObjectDBX Classes
 90
     4095
 91
       26
280
     0
281
     0
  0
CLASS
  1
SCALE
  2
AcDbScale
  3
ObjectDBX Classes
 90
     1153
 91
       33
280
     0
281
     0
  0
CLASS
  1
MLEADERSTYLE
  2
AcDbMLeaderStyle
  3
ACDB_MLEADERSTYLE_CLASS
 90
     4095
 91
        1
280
     0
281
     0
  0
CLASS
  1
CELLSTYLEMAP
  2
AcDbCellStyleMap
  3
ObjectDBX Classes
 90
     1152
 91
        1
280
     0
281
     0
  0
CLASS
  1
AEC_REFEDIT_STATUS_TRACKER
  2
AecDbRefEditStatusTracker
  3
AecArchBase80|Product Desc: Autodesk Architectural Desktop 2007 |Company: Autodesk,Inc. |WEB Address: www.autodesk.com
 90
      129
 91
        0
280
     0
281
     0
  0
CLASS
  1
NPOCOLLECTION
  2
AcDbImpNonPersistentObjectsCollection
  3
ObjectDBX Classes
 90
     1153
 91
        1
280
     0
281
     0
  0
CLASS
  1
ACDBSECTIONVIEWSTYLE
  2
AcDbSectionViewStyle
  3
ObjectDBX Classes
 90
     1025
 91
        1
280
     0
281
     0
  0
CLASS
  1
ACDBDETAILVIEWSTYLE
  2
AcDbDetailViewStyle
  3
ObjectDBX Classes
 90
     1025
 91
        1
280
     0
281
     0
  0
CLASS
  1
EXACXREFPANELOBJECT
  2
ExAcXREFPanelObject
  3
EXAC_ESW
 90
     1025
 91
        1
280
     0
281
     0
  0
CLASS
  1
ACAD_EVALUATION_GRAPH
  2
AcDbEvalGraph
  3
ObjectDBX Classes
 90
     1153
 91
        0
280
     0
281
     0
  0
CLASS
  1
ACAECUSTOBJ
  2
AcAeEditorObj
  3
AcAeEditorObj
 90
     1024
 91
        0
280
     0
281
     0
  0
CLASS
  1
ACDB_DYNAMICBLOCKPURGEPREVENTER_VERSION
  2
AcDbDynamicBlockPurgePreventer
  3
ObjectDBX Classes
 90
     1153
 91
        0
280
     0
281
     0
  0
ENDSEC
  0
SECTION
  2
TABLES
  0
TABLE
  2
VPORT
  5
7
102
{ACAD_XDICTIONARY
360
6038
102
}
330
0
100
AcDbSymbolTable
 70
     1
1001
ACAD
1000
DbSaveVer
1071
      226
  0
VPORT
  5
5F93
330
7
100
AcDbSymbolTableRecord
100
AcDbViewportTableRecord
  2
*Active
 70
     0
 10
0.0
 20
0.0
 11
1.0
 21
1.0
 12
-0.081866202348234
 22
2.068304226344222
 13
0.0
 23
0.0
 14
1.0
 24
1.0
 15
0.0
 25
0.0
 16
0.0
 26
0.0
 36
1.0
 17
0.0
 27
0.0
 37
0.0
 40
19.67599947361101
 41
1.869829683698296
 42
50.0
 43
0.0
 44
0.0
 50
0.0
 51
0.0
 71
     0
 72
   100
 73
     1
 74
     0
 75
     0
 76
     0
 77
     0
 78
     0
281
     0
 65
     0
110
0.0
120
0.0
130
0.0
111
1.0
121
0.0
131
0.0
112
0.0
122
1.0
132
0.0
 79
     0
146
0.0
348
5FBF
 60
     3
 61
     5
292
     1
282
     1
141
0.0
142
0.0
 63
   250
421
  3355443
1001
ACAD_NAV_VCDISPLAY
1070
     3
  0
ENDTAB
  0
TABLE
  2
LTYPE
  5
4
330
0
100
AcDbSymbolTable
 70
     2
  0
LTYPE
  5
11
330
4
100
AcDbSymbolTableRecord
100
AcDbLinetypeTableRecord
  2
ByBlock
 70
     0
  3

 72
    65
 73
     0
 40
0.0
  0
LTYPE
  5
12
330
4
100
AcDbSymbolTableRecord
100
AcDbLinetypeTableRecord
  2
ByLayer
 70
     0
  3

 72
    65
 73
     0
 40
0.0
  0
LTYPE
  5
13
330
4
100
AcDbSymbolTableRecord
100
AcDbLinetypeTableRecord
  2
Continuous
 70
     0
  3
Solid line
 72
    65
 73
     0
 40
0.0
  0
ENDTAB
  0
TABLE
  2
LAYER
  5
2
102
{ACAD_XDICTIONARY
360
9B
102
}
330
0
100
AcDbSymbolTable
 70
     5
  0
LAYER
  5
14
102
{ACAD_XDICTIONARY
360
602E
102
}
330
2
100
AcDbSymbolTableRecord
100
AcDbLayerTableRecord
  2
0
 70
     0
 62
     7
  6
Continuous
370
    -3
390
1D
347
5FB1
348
0
  0
LAYER
  5
24
102
{ACAD_XDICTIONARY
360
6030
102
}
330
2
100
AcDbSymbolTableRecord
100
AcDbLayerTableRecord
  2
LAYER_1
 70
     0
 62
     7
  6
Continuous
370
    -3
390
1D
347
5FB1
348
0
  0
LAYER
  5
1BE
102
{ACAD_XDICTIONARY
360
6032
102
}
330
2
100
AcDbSymbolTableRecord
100
AcDbLayerTableRecord
  2
DO NOT PLOT
 70
     0
 62
     2
  6
Continuous
290
     0
370
    -3
390
1D
347
5FB1
348
0
  0
LAYER
  5
386F
330
2
100
AcDbSymbolTableRecord
100
AcDbLayerTableRecord
  2
DEFPOINTS
 70
     0
 62
     7
  6
Continuous
290
     0
370
    -3
390
1D
347
5FB1
348
0
  0
LAYER
  5
F299
102
{ACAD_XDICTIONARY
360
F29A
102
}
330
2
100
AcDbSymbolTableRecord
100
AcDbLayerTableRecord
  2
elev-6
 70
     0
 62
   146
  6
Continuous
370
    -3
390
1D
347
5FB1
348
0
1001
ACAECLAYERSTANDARD
1000
Non Standard
  0
ENDTAB
  0
TABLE
  2
STYLE
  5
3
330
0
100
AcDbSymbolTable
 70
     5
  0
STYLE
  5
17
330
3
100
AcDbSymbolTableRecord
100
AcDbTextStyleTableRecord
  2
Standard
 70
     0
 40
0.0
 41
1.0
 50
0.0
 71
     0
 42
0.093
  3
txt
  4

  0
STYLE
  5
ECAA
330
3
100
AcDbSymbolTableRecord
100
AcDbTextStyleTableRecord
  2
DIMTEXT
 70
     0
 40
0.0
 41
0.75
 50
0.0
 71
     0
 42
4.5
  3
archquik.shx
  4

  0
STYLE
  5
ECAB
330
3
100
AcDbSymbolTableRecord
100
AcDbTextStyleTableRecord
  2
TEXTM
 70
     0
 40
0.0
 41
0.8
 50
0.0
 71
     0
 42
4.5
  3
archquik.shx
  4

  0
STYLE
  5
EEB0
330
3
100
AcDbSymbolTableRecord
100
AcDbTextStyleTableRecord
  2
DynamicDimensions
 70
     0
 40
0.0
 41
1.0
 50
0.0
 71
     0
 42
4.5
  3
arial.ttf
  4

1001
ACAD
1000
Arial
1071
      290
1001
ACAD_EXEMPT_FROM_CAD_STANDARDS
1070
     1
  0
STYLE
  5
F29B
330
3
100
AcDbSymbolTableRecord
100
AcDbTextStyleTableRecord
  2
Arch-Dim
 70
     0
 40
0.0
 41
0.75
 50
0.0
 71
     0
 42
0.2
  3
romans.shx
  4

  0
ENDTAB
  0
TABLE
  2
VIEW
  5
5
330
0
100
AcDbSymbolTable
 70
     3
  0
ENDTAB
  0
TABLE
  2
UCS
  5
6
330
0
100
AcDbSymbolTable
 70
     0
  0
ENDTAB
  0
TABLE
  2
APPID
  5
8
330
0
100
AcDbSymbolTable
 70
    18
  0
APPID
  5
16
330
8
100
AcDbSymbolTableRecord
100
AcDbRegAppTableRecord
  2
ACAD
 70
     0
  0
APPID
  5
66
330
8
100
AcDbSymbolTableRecord
100
AcDbRegAppTableRecord
  2
ACAD_PSEXT
 70
     0
  0
APPID
  5
119C
330
8
100
AcDbSymbolTableRecord
100
AcDbRegAppTableRecord
  2
DCO15
 70
     0
  0
APPID
  5
34BE
330
8
100
AcDbSymbolTableRecord
100
AcDbRegAppTableRecord
  2
ACAD_EXEMPT_FROM_CAD_STANDARDS
 70
     0
  0
APPID
  5
5FEE
330
8
100
AcDbSymbolTableRecord
100
AcDbRegAppTableRecord
  2
ACAD_MLEADERVER
 70
     0
  0
APPID
  5
606A
330
8
100
AcDbSymbolTableRecord
100
AcDbRegAppTableRecord
  2
AcadAnnotative
 70
     0
  0
APPID
  5
65BA
330
8
100
AcDbSymbolTableRecord
100
AcDbRegAppTableRecord
  2
AcDbDynamicBlockGUID
 70
     0
  0
APPID
  5
65BB
330
8
100
AcDbSymbolTableRecord
100
AcDbRegAppTableRecord
  2
AcDbBlockRepETag
 70
     0
  0
APPID
  5
6671
330
8
100
AcDbSymbolTableRecord
100
AcDbRegAppTableRecord
  2
ACAD_NAV_VCDISPLAY
 70
     0
  0
APPID
  5
7269
330
8
100
AcDbSymbolTableRecord
100
AcDbRegAppTableRecord
  2
ACAUTHENVIRON
 70
     0
  0
APPID
  5
EB40
330
8
100
AcDbSymbolTableRecord
100
AcDbRegAppTableRecord
  2
AcDbDynamicBlockTrueName
 70
     0
  0
APPID
  5
ECAE
330
8
100
AcDbSymbolTableRecord
100
AcDbRegAppTableRecord
  2
ACAECLAYERSTANDARD
 70
     0
  0
APPID
  5
ECAF
330
8
100
AcDbSymbolTableRecord
100
AcDbRegAppTableRecord
  2
ACAD_DSTYLE_DIMJAG
 70
     0
  0
APPID
  5
ECB0
330
8
100
AcDbSymbolTableRecord
100
AcDbRegAppTableRecord
  2
ACAD_DSTYLE_DIMTALN
 70
     0
  0
APPID
  5
ECB1
330
8
100
AcDbSymbolTableRecord
100
AcDbRegAppTableRecord
  2
ACAD_DSTYLE_DIMBREAK
 70
     0
  0
APPID
  5
ECB2
330
8
100
AcDbSymbolTableRecord
100
AcDbRegAppTableRecord
  2
GradientColor1ACI
 70
     0
  0
APPID
  5
ECB3
330
8
100
AcDbSymbolTableRecord
100
AcDbRegAppTableRecord
  2
GradientColor2ACI
 70
     0
  0
APPID
  5
F053
330
8
100
AcDbSymbolTableRecord
100
AcDbRegAppTableRecord
  2
AcadAnnoMonitorAlertIconDisabled
 70
     0
  0
ENDTAB
  0
TABLE
  2
DIMSTYLE
  5
9
330
0
100
AcDbSymbolTable
 70
     6
100
AcDbDimStyleTable
 71
     1
340
18
  0
DIMSTYLE
105
18
330
9
100
AcDbSymbolTableRecord
100
AcDbDimStyleTableRecord
  2
Standard
 70
     0
289
     0
340
17
  0
DIMSTYLE
105
ECAD
102
{ACAD_REACTORS
330
ED24
330
ED27
102
}
330
9
100
AcDbSymbolTableRecord
100
AcDbDimStyleTableRecord
  2
DIM 2
 70
     0
 40
2.0
 41
0.09375
 42
0.125
 43
0.75
 44
0.046875
 45
0.125
 73
     0
 74
     0
 77
     1
 78
     7
140
0.09375
141
-1.0
144
-96.0
146
9.0
147
0.0625
172
     1
176
   155
177
   155
178
   256
276
     2
277
     4
279
     2
340
ECAA
342
EC59
1001
ACAD_DSTYLE_DIMBREAK
1070
   391
1040
0.125
1001
ACAD_DSTYLE_DIMJAG
1070
   388
1040
1.5
1001
ACAD_DSTYLE_DIMTALN
1070
   392
1070
     0
  0
DIMSTYLE
105
F29C
330
9
100
AcDbSymbolTableRecord
100
AcDbDimStyleTableRecord
  2
Stairs_I
 70
     0
 40
96.0
 41
0.09375
 43
0.375
 44
0.0625
 73
     0
 77
     1
 78
     3
 79
     2
140
0.09375
141
0.09375
146
0.75
147
0.03125
172
     1
173
     1
174
     1
179
     2
277
     4
279
     2
289
     2
340
F29B
341
F285
343
F28B
344
F28F
  0
DIMSTYLE
105
F29D
330
9
100
AcDbSymbolTableRecord
100
AcDbDimStyleTableRecord
  2
Annotative
 70
     0
 40
96.0
 41
0.0625
 43
0.375
 44
0.0625
 73
     0
 74
     0
 77
     1
 78
     3
 79
     2
140
0.09375
141
0.09375
146
0.75
147
0.03125
172
     1
174
     1
179
     2
277
     4
279
     2
340
F29B
342
F295
1001
AcadAnnotative
1000
AnnotativeData
1002
{
1070
     1
1070
     1
1002
}
1001
ACAD_DSTYLE_DIMJAG
1070
   388
1040
1.5
1001
ACAD_DSTYLE_DIMTALN
1070
   392
1070
     0
  0
DIMSTYLE
105
F29E
330
9
100
AcDbSymbolTableRecord
100
AcDbDimStyleTableRecord
  2
DIM 12
 70
     0
 40
12.0
 41
0.09375
 42
0.125
 43
0.75
 44
0.046875
 45
0.125
 73
     0
 74
     0
 77
     1
 78
     7
140
0.09375
141
-1.0
144
-96.0
146
9.0
147
0.0625
172
     1
176
   155
177
   155
178
   256
276
     2
277
     4
279
     2
340
ECAA
342
EC59
  0
DIMSTYLE
105
F29F
330
9
100
AcDbSymbolTableRecord
100
AcDbDimStyleTableRecord
  2
DIM 16
 70
     0
 40
16.0
 41
0.09375
 42
0.125
 43
0.75
 44
0.046875
 45
0.125
 73
     0
 74
     0
 77
     1
 78
     7
140
0.09375
141
-1.0
144
-96.0
146
9.0
147
0.0625
172
     1
176
   155
177
   155
178
   256
276
     2
277
     4
279
     2
340
ECAA
342
EC59
  0
ENDTAB
  0
TABLE
  2
BLOCK_RECORD
  5
1
330
0
100
AcDbSymbolTable
 70
    11
  0
BLOCK_RECORD
  5
A
102
{ACAD_XDICTIONARY
360
34BB
102
}
330
1
100
AcDbSymbolTableRecord
100
AcDbBlockTableRecord
  2
*MODEL_SPACE
340
20
 70
     0
280
     1
281
     0
  0
BLOCK_RECORD
  5
B
330
1
100
AcDbSymbolTableRecord
100
AcDbBlockTableRecord
  2
*PAPER_SPACE
340
21
 70
     0
280
     1
281
     0
  0
BLOCK_RECORD
  5
EC59
102
{ACAD_XDICTIONARY
360
EC5A
102
}
330
1
100
AcDbSymbolTableRecord
100
AcDbBlockTableRecord
  2
DIMTICK2
340
0
310
2800000020000000200000000100080000000000000400000000000000000000000000000000000000000000000080000080000000808000800000008000800080800000C0C0C000C0DCC000F0CAA6000020400000206000002080000020A0000020C0000020E00000400000004020000040400000406000004080000040A0
310
000040C0000040E00000600000006020000060400000606000006080000060A0000060C0000060E00000800000008020000080400000806000008080000080A0000080C0000080E00000A0000000A0200000A0400000A0600000A0800000A0A00000A0C00000A0E00000C0000000C0200000C0400000C0600000C0800000C0
310
A00000C0C00000C0E00000E0000000E0200000E0400000E0600000E0800000E0A00000E0C00000E0E00040000000400020004000400040006000400080004000A0004000C0004000E00040200000402020004020400040206000402080004020A0004020C0004020E000404000004040200040404000404060004040800040
310
40A0004040C0004040E00040600000406020004060400040606000406080004060A0004060C0004060E00040800000408020004080400040806000408080004080A0004080C0004080E00040A0000040A0200040A0400040A0600040A0800040A0A00040A0C00040A0E00040C0000040C0200040C0400040C0600040C08000
310
40C0A00040C0C00040C0E00040E0000040E0200040E0400040E0600040E0800040E0A00040E0C00040E0E00080000000800020008000400080006000800080008000A0008000C0008000E00080200000802020008020400080206000802080008020A0008020C0008020E00080400000804020008040400080406000804080
310
008040A0008040C0008040E00080600000806020008060400080606000806080008060A0008060C0008060E00080800000808020008080400080806000808080008080A0008080C0008080E00080A0000080A0200080A0400080A0600080A0800080A0A00080A0C00080A0E00080C0000080C0200080C0400080C0600080C0
310
800080C0A00080C0C00080C0E00080E0000080E0200080E0400080E0600080E0800080E0A00080E0C00080E0E000C0000000C0002000C0004000C0006000C0008000C000A000C000C000C000E000C0200000C0202000C0204000C0206000C0208000C020A000C020C000C020E000C0400000C0402000C0404000C0406000C0
310
408000C040A000C040C000C040E000C0600000C0602000C0604000C0606000C0608000C060A000C060C000C060E000C0800000C0802000C0804000C0806000C0808000C080A000C080C000C080E000C0A00000C0A02000C0A04000C0A06000C0A08000C0A0A000C0A0C000C0A0E000C0C00000C0C02000C0C04000C0C06000
310
C0C08000C0C0A000F0FBFF00A4A0A000808080000000FF0000FF000000FFFF00FF000000FF00FF00FFFF0000FFFFFF0000000000000000000000000000000000000000000000000000000000000000000000000000000000000000000000000000000000000000000000000000000000000000000000000000000000000000
310
00000000000000000000000000000000000000000000000000000000000000000000000000000000000000000000000000000000000000000000000000000000000000000000000000000000000000000000000000000000000000000000FF000000000000000000000000000000000000000000000000000000000000FF00
310
FF00000000000000000000000000000000000000000000000000000000FF000000FF0000000000000000000000000000000000000000000000000000FF0000000000FF000000000000000000000000000000000000000000000000FF00000000000000FF000000000000000000000000000000000000000000000000FF0000
310
0000000000FF000000000000000000000000000000000000000000000000FF00000000000000FF000000000000000000000000000000000000000000000000FF00000000000000FF000000000000000000000000000000000000000000000000FF00000000000000FF00000000000000000000000000000000000000000000
310
0000FF00000000000000FF00000000000000000000FFFFFFFFFFFFFFFFFFFFFFFFFFFFFFFFFFFFFF000000FF000000000000000000000000000000000000000000000000FF00000000000000FF000000000000000000000000000000000000000000000000FF00000000000000FF0000000000000000000000000000000000
310
00000000000000FF00000000000000FF000000000000000000000000000000000000000000000000FF00000000000000FF000000000000000000000000000000000000000000000000FF00000000000000FF000000000000000000000000000000000000000000000000FF00000000000000FF000000000000000000000000
310
000000000000000000000000FF00000000000000FF000000000000000000000000000000000000000000000000FF0000000000FF0000000000000000000000000000000000000000000000000000FF000000FF00000000000000000000000000000000000000000000000000000000FF00FF00000000000000000000000000
310
0000000000000000000000000000000000FF00000000000000000000000000000000000000000000000000000000000000000000000000000000000000000000000000000000000000000000000000000000000000000000000000000000000000000000000000000000000000000000000000000000000000000000000000
310
0000000000000000000000000000000000000000000000000000000000000000000000000000000000000000000000000000000000000000
102
{BLKREFS
331
F67C
331
F67D
331
F6C2
331
F6C3
102
}
 70
     0
280
     1
281
     0
  0
BLOCK_RECORD
  5
ED58
330
1
100
AcDbSymbolTableRecord
100
AcDbBlockTableRecord
  2
*D3
340
0
 70
     0
280
     1
281
     0
  0
BLOCK_RECORD
  5
ED7C
330
1
100
AcDbSymbolTableRecord
100
AcDbBlockTableRecord
  2
*D6
340
0
 70
     0
280
     1
281
     0
  0
BLOCK_RECORD
  5
F285
330
1
100
AcDbSymbolTableRecord
100
AcDbBlockTableRecord
  2
_Open90
340
0
 70
     0
280
     1
281
     0
  0
BLOCK_RECORD
  5
F28B
330
1
100
AcDbSymbolTableRecord
100
AcDbBlockTableRecord
  2
_Small
340
0
 70
     0
280
     1
281
     0
  0
BLOCK_RECORD
  5
F28F
102
{ACAD_XDICTIONARY
360
F290
102
}
330
1
100
AcDbSymbolTableRecord
100
AcDbBlockTableRecord
  2
AecRight
340
0
310
2800000020000000200000000100080000000000000400000000000000000000000000000000000000000000000080000080000000808000800000008000800080800000C0C0C000C0DCC000F0CAA6000020400000206000002080000020A0000020C0000020E00000400000004020000040400000406000004080000040A0
310
000040C0000040E00000600000006020000060400000606000006080000060A0000060C0000060E00000800000008020000080400000806000008080000080A0000080C0000080E00000A0000000A0200000A0400000A0600000A0800000A0A00000A0C00000A0E00000C0000000C0200000C0400000C0600000C0800000C0
310
A00000C0C00000C0E00000E0000000E0200000E0400000E0600000E0800000E0A00000E0C00000E0E00040000000400020004000400040006000400080004000A0004000C0004000E00040200000402020004020400040206000402080004020A0004020C0004020E000404000004040200040404000404060004040800040
310
40A0004040C0004040E00040600000406020004060400040606000406080004060A0004060C0004060E00040800000408020004080400040806000408080004080A0004080C0004080E00040A0000040A0200040A0400040A0600040A0800040A0A00040A0C00040A0E00040C0000040C0200040C0400040C0600040C08000
310
40C0A00040C0C00040C0E00040E0000040E0200040E0400040E0600040E0800040E0A00040E0C00040E0E00080000000800020008000400080006000800080008000A0008000C0008000E00080200000802020008020400080206000802080008020A0008020C0008020E00080400000804020008040400080406000804080
310
008040A0008040C0008040E00080600000806020008060400080606000806080008060A0008060C0008060E00080800000808020008080400080806000808080008080A0008080C0008080E00080A0000080A0200080A0400080A0600080A0800080A0A00080A0C00080A0E00080C0000080C0200080C0400080C0600080C0
310
800080C0A00080C0C00080C0E00080E0000080E0200080E0400080E0600080E0800080E0A00080E0C00080E0E000C0000000C0002000C0004000C0006000C0008000C000A000C000C000C000E000C0200000C0202000C0204000C0206000C0208000C020A000C020C000C020E000C0400000C0402000C0404000C0406000C0
310
408000C040A000C040C000C040E000C0600000C0602000C0604000C0606000C0608000C060A000C060C000C060E000C0800000C0802000C0804000C0806000C0808000C080A000C080C000C080E000C0A00000C0A02000C0A04000C0A06000C0A08000C0A0A000C0A0C000C0A0E000C0C00000C0C02000C0C04000C0C06000
310
C0C08000C0C0A000F0FBFF00A4A0A000808080000000FF0000FF000000FFFF00FF000000FF00FF00FFFF0000FFFFFF00FFFFFFFFFFFFFFFFFFFFFFFFFFFFFFFFFFFFFFFFFFFFFFFFFFFFFFFFFFFFFFFFFFFFFFFFFFFFFFFF00FFFFFFFFFFFFFFFFFFFFFFFFFFFFFFFFFFFFFFFFFFFFFFFFFFFFFFFFFFFFFFFF00FFFFFFFFFF
310
FFFFFFFFFFFFFFFFFFFFFFFFFFFFFFFFFFFFFFFFFFFFFFFFFFFFFF00FFFFFFFFFFFFFFFFFFFFFFFFFFFFFFFFFFFFFFFFFFFFFFFFFFFFFFFFFFFFFFFF00FFFFFFFFFFFFFFFFFFFFFFFFFFFFFFFFFFFFFFFFFFFFFFFFFFFFFFFFFFFFFFFF00FFFFFFFFFFFFFFFFFFFFFFFFFFFFFFFFFFFFFFFFFFFFFFFFFFFFFFFFFFFFFFFF00
310
FFFFFFFFFFFFFFFFFFFFFFFFFFFFFFFFFFFFFFFFFFFFFFFFFFFFFFFFFFFFFFFF00FFFFFFFFFFFFFFFFFFFFFFFFFFFFFFFFFFFFFFFFFFFFFFFFFFFFFFFFFFFFFFFF00FFFFFFFFFFFFFFFFFFFFFFFFFFFFFFFFFFFFFFFFFFFFFFFFFFFFFFFFFFFFFFFF00FFFFFFFFFFFFFFFFFFFFFFFFFFFFFFFFFFFFFFFFFFFFFFFFFFFFFFFF
310
FFFFFFFF00FFFFFFFFFFFFFFFFFFFFFFFFFFFFFFFFFFFFFFFFFFFFFFFFFFFFFFFFFFFFFFFF00FFFFFFFFFFFFFFFFFFFFFFFFFFFFFFFFFFFFFFFFFFFFFFFFFFFFFFFFFFFFFFFF00FFFFFFFFFFFFFFFFFFFFFFFFFFFFFFFFFFFFFFFFFFFFFFFFFFFFFFFFFFFFFFFF00FFFFFFFFFFFFFFFFFFFFFFFFFFFFFFFFFFFFFFFFFFFFFF
310
FFFFFFFFFFFFFFFFFF00FFFFFFFFFFFFFFFFFFFFFFFFFFFFFFFFFFFFFFFFFFFFFFFFFFFFFFFFFFFFFFFF00FFFFFFFFFFFFFFFFFFFFFFFFFFFFFFFFFFFFFFFFFFFFFFFFFFFFFFFFFFFF00FFFFFFFFFFFFFFFFFFFFFFFFFFFFFFFFFFFFFFFFFFFFFFFFFFFFFFFFFFFF00FFFFFFFFFFFFFFFFFFFFFFFFFFFFFFFFFFFFFFFFFFFF
310
FFFFFFFFFFFFFFFF00FFFFFFFFFFFFFFFFFFFFFFFFFFFFFFFFFFFFFFFFFFFFFFFFFFFFFFFFFFFF00FFFFFFFFFFFFFFFFFFFFFFFFFFFFFFFFFFFFFFFFFFFFFFFFFFFFFFFFFFFF00FFFFFFFFFFFFFFFFFFFFFFFFFFFFFFFFFFFFFFFFFFFFFFFFFFFFFFFFFFFF00FFFFFFFFFFFFFFFFFFFFFFFFFFFFFFFFFFFFFFFFFFFFFFFFFF
310
FFFFFFFFFF00FFFFFFFFFFFFFFFFFFFFFFFFFFFFFFFFFFFFFFFFFFFFFFFFFFFFFFFFFFFF00FFFFFFFFFFFFFFFFFFFFFFFFFFFFFFFFFFFFFFFFFFFFFFFFFFFFFFFFFFFF00FFFFFFFFFFFFFFFFFFFFFFFFFFFFFFFFFFFFFFFFFFFFFFFFFFFFFFFFFFFF00FFFFFFFFFFFFFFFFFFFFFFFFFFFFFFFFFFFFFFFFFFFFFFFFFFFFFFFF
310
FFFF00FFFFFFFFFFFFFFFFFFFFFFFFFFFFFFFFFFFFFFFFFFFFFFFFFFFFFFFFFFFF00FFFFFFFFFFFFFFFFFFFFFFFFFFFFFFFFFFFFFFFFFFFFFFFFFFFFFFFFFFFF00FFFFFFFFFFFFFFFFFFFFFFFFFFFFFFFFFFFFFFFFFFFFFFFFFFFFFFFFFFFFFFFFFFFFFFFFFFFFFFFFFFFFFFFFFFFFFFFFFFFFFFFFFFFFFFFFFFFFFFFFFFFF
310
FFFFFFFFFFFFFFFFFFFFFFFFFFFFFFFFFFFFFFFFFFFFFFFFFFFFFFFFFFFFFFFFFFFFFFFFFFFFFFFFFFFFFFFFFFFFFFFFFFFFFFFFFFFFFFFF
 70
     1
280
     1
281
     0
  0
BLOCK_RECORD
  5
F295
330
1
100
AcDbSymbolTableRecord
100
AcDbBlockTableRecord
  2
_ArchTick
340
0
 70
     0
280
     1
281
     0
  0
ENDTAB
  0
ENDSEC
  0
SECTION
  2
BLOCKS
  0
BLOCK
  5
D
330
A
100
AcDbEntity
  8
0
100
AcDbBlockBegin
  2
*MODEL_SPACE
 70
     0
 10
0.0
 20
0.0
 30
0.0
  3
*MODEL_SPACE
  1

  0
ENDBLK
  5
E
330
A
100
AcDbEntity
  8
0
100
AcDbBlockEnd
  0
BLOCK
  5
F
330
B
100
AcDbEntity
 67
     1
  8
0
100
AcDbBlockBegin
  2
*PAPER_SPACE
 70
     0
 10
0.0
 20
0.0
 30
0.0
  3
*PAPER_SPACE
  1

  0
ENDBLK
  5
10
330
B
100
AcDbEntity
 67
     1
  8
0
100
AcDbBlockEnd
  0
BLOCK
  5
EC5C
330
EC59
100
AcDbEntity
  8
0
100
AcDbBlockBegin
  2
DIMTICK2
 70
     0
 10
0.0
 20
0.0
 30
0.0
  3
DIMTICK2
  1

  0
LINE
  5
EC5D
330
EC59
100
AcDbEntity
  8
0
  6
ByBlock
100
AcDbLine
 10
0.0
 20
0.0
 30
0.0
 11
-1.021484375
 21
0.0
 31
0.0
  0
SOLID
  5
EC5E
330
EC59
100
AcDbEntity
  8
0
100
AcDbTrace
 10
-0.3553013565524452
 20
-0.2247235971840382
 30
0.0
 11
-0.2247235971840382
 21
-0.3553013565521894
 31
0.0
 12
0.2247235971840382
 22
0.3553013565521894
 32
0.0
 13
0.3553013565524452
 23
0.2247235971840382
 33
0.0
  0
ENDBLK
  5
EC5F
330
EC59
100
AcDbEntity
  8
0
100
AcDbBlockEnd
  0
BLOCK
  5
ED59
330
ED58
100
AcDbEntity
  8
0
370
     0
100
AcDbBlockBegin
  2
*D3
 70
     1
 10
0.0
 20
0.0
 30
0.0
  3
*D3
  1

  0
LINE
  5
F679
330
ED58
100
AcDbEntity
  8
0
 62
   155
440
 16777216
370
    -2
100
AcDbLine
 10
-5.453073889108837
 20
7.400384484872328
 30
0.0
 11
-5.889139490297025
 21
7.400384484872328
 31
0.0
  0
LINE
  5
F67A
330
ED58
100
AcDbEntity
  8
0
 62
   155
440
 16777216
370
    -2
100
AcDbLine
 10
-5.413013518981559
 20
-0.073590071423368
 30
0.0
 11
-5.889139490297023
 21
-0.0735900714233681
 31
0.0
  0
LINE
  5
F67B
330
ED58
100
AcDbEntity
  8
0
 62
   155
440
 16777216
370
    -2
100
AcDbLine
 10
-5.795389490297025
 20
7.212884484872328
 30
0.0
 11
-5.795389490297023
 21
0.113909928576632
 31
0.0
  0
INSERT
  5
F67C
330
ED58
100
AcDbEntity
  8
0
 62
   155
440
 16777216
370
    -2
100
AcDbBlockReference
  2
DIMTICK2
 10
-5.795389490297025
 20
7.400384484872328
 30
0.0
 41
0.1875
 42
0.1875
 43
0.1875
 50
90.0
  0
INSERT
  5
F67D
330
ED58
100
AcDbEntity
  8
0
 62
   155
440
 16777216
370
    -2
100
AcDbBlockReference
  2
DIMTICK2
 10
-5.795389490297023
 20
-0.0735900714233681
 30
0.0
 41
0.1875
 42
0.1875
 43
0.1875
 50
270.0
  0
MTEXT
  5
F67E
330
ED58
100
AcDbEntity
  8
0
440
 16777216
100
AcDbMText
 10
-5.977265666115576
 20
3.66339720672448
 30
0.0
 40
0.1875
 41
0.0
 46
0.0
 71
     5
 72
     1
  1
\A1;{\fArial|b0|i0|c0|p34;\H0.58667x;\W1;7-1/2"}
  7
DIMTEXT
 11
0.0000000000000001
 21
1.0
 31
0.0
 73
     1
 44
1.0
  0
POINT
  5
F67F
330
ED58
100
AcDbEntity
  8
DEFPOINTS
 62
     0
440
 16777216
370
     0
100
AcDbPoint
 10
-5.203073889108837
 20
7.400384484872328
 30
0.0
  0
POINT
  5
F680
330
ED58
100
AcDbEntity
  8
DEFPOINTS
 62
     0
440
 16777216
370
     0
100
AcDbPoint
 10
-5.163013518981559
 20
-0.073590071423368
 30
0.0
  0
POINT
  5
F681
330
ED58
100
AcDbEntity
  8
DEFPOINTS
 62
     0
440
 16777216
370
     0
100
AcDbPoint
 10
-5.795389490297023
 20
-0.0735900714233681
 30
0.0
  0
ENDBLK
  5
ED5A
330
ED58
100
AcDbEntity
  8
0
370
     0
100
AcDbBlockEnd
  0
BLOCK
  5
ED7D
330
ED7C
100
AcDbEntity
  8
0
370
     0
100
AcDbBlockBegin
  2
*D6
 70
     1
 10
0.0
 20
0.0
 30
0.0
  3
*D6
  1

  0
LINE
  5
F6BE
330
ED7C
100
AcDbEntity
  8
0
 62
   155
440
 16777216
370
    -2
100
AcDbLine
 10
-5.299590076361504
 20
7.5580157039102
 30
0.0
 11
-5.299590076361504
 21
8.075307760056167
 31
0.0
  0
LINE
  5
F6BF
330
ED7C
100
AcDbEntity
  8
0
 62
   155
440
 16777216
370
    -2
100
AcDbLine
 10
1.974040870910734
 20
7.583706056555577
 30
0.0
 11
1.974040870910734
 21
8.075307760056167
 31
0.0
  0
LINE
  5
F6C0
330
ED7C
100
AcDbEntity
  8
0
 62
   155
440
 16777216
370
    -2
100
AcDbLine
 10
-5.112090076361504
 20
7.981557760056167
 30
0.0
 11
1.786540870910734
 21
7.981557760056167
 31
0.0
  0
MTEXT
  5
F6C1
330
ED7C
100
AcDbEntity
  8
0
440
 16777216
100
AcDbMText
 10
-1.704027658296126
 20
8.199571794590404
 30
0.0
 40
0.1875
 41
0.0
 46
0.0
 71
     5
 72
     1
  1
\A1;{\fArial|b0|i0|c0|p34;\H0.58667x;\W1;7-1/4"}
  7
DIMTEXT
 73
     1
 44
1.0
  0
INSERT
  5
F6C2
330
ED7C
100
AcDbEntity
  8
0
 62
   155
440
 16777216
370
    -2
100
AcDbBlockReference
  2
DIMTICK2
 10
-5.299590076361504
 20
7.981557760056167
 30
0.0
 41
0.1875
 42
0.1875
 43
0.1875
 50
180.0
  0
INSERT
  5
F6C3
330
ED7C
100
AcDbEntity
  8
0
 62
   155
440
 16777216
370
    -2
100
AcDbBlockReference
  2
DIMTICK2
 10
1.974040870910734
 20
7.981557760056167
 30
0.0
 41
0.1875
 42
0.1875
 43
0.1875
  0
POINT
  5
F6C4
330
ED7C
100
AcDbEntity
  8
DEFPOINTS
 62
     0
440
 16777216
370
     0
100
AcDbPoint
 10
-5.299590076361504
 20
7.3080157039102
 30
0.0
  0
POINT
  5
F6C5
330
ED7C
100
AcDbEntity
  8
DEFPOINTS
 62
     0
440
 16777216
370
     0
100
AcDbPoint
 10
1.974040870910734
 20
7.333706056555577
 30
0.0
  0
POINT
  5
F6C6
330
ED7C
100
AcDbEntity
  8
DEFPOINTS
 62
     0
440
 16777216
370
     0
100
AcDbPoint
 10
1.974040870910734
 20
7.981557760056167
 30
0.0
  0
ENDBLK
  5
ED7E
330
ED7C
100
AcDbEntity
  8
0
370
     0
100
AcDbBlockEnd
  0
BLOCK
  5
F286
330
F285
100
AcDbEntity
  8
0
100
AcDbBlockBegin
  2
_Open90
 70
     0
 10
0.0
 20
0.0
 30
0.0
  3
_Open90
  1

  0
LINE
  5
F287
330
F285
100
AcDbEntity
  8
0
  6
ByBlock
 62
     0
370
    -2
100
AcDbLine
 10
-0.5
 20
0.5
 30
0.0
 11
0.0
 21
0.0
 31
0.0
  0
LINE
  5
F288
330
F285
100
AcDbEntity
  8
0
  6
ByBlock
 62
     0
370
    -2
100
AcDbLine
 10
0.0
 20
0.0
 30
0.0
 11
-0.5
 21
-0.5
 31
0.0
  0
LINE
  5
F289
330
F285
100
AcDbEntity
  8
0
  6
ByBlock
 62
     0
370
    -2
100
AcDbLine
 10
0.0
 20
0.0
 30
0.0
 11
-1.0
 21
0.0
 31
0.0
  0
ENDBLK
  5
F28A
330
F285
100
AcDbEntity
  8
0
100
AcDbBlockEnd
  0
BLOCK
  5
F28C
330
F28B
100
AcDbEntity
  8
0
100
AcDbBlockBegin
  2
_Small
 70
     0
 10
0.0
 20
0.0
 30
0.0
  3
_Small
  1

  0
CIRCLE
  5
F28D
330
F28B
100
AcDbEntity
  8
0
  6
ByBlock
 62
     0
370
    -2
100
AcDbCircle
 10
0.0
 20
0.0
 30
0.0
 40
0.25
  0
ENDBLK
  5
F28E
330
F28B
100
AcDbEntity
  8
0
100
AcDbBlockEnd
  0
BLOCK
  5
F291
330
F28F
100
AcDbEntity
  8
0
100
AcDbBlockBegin
  2
AecRight
 70
     0
 10
0.0
 20
0.0
 30
0.0
  3
AecRight
  1

  0
LINE
  5
F292
330
F28F
100
AcDbEntity
  8
0
  6
ByBlock
 62
     0
370
    -2
380
     1
100
AcDbLine
 10
-0.5
 20
-0.5
 30
0.0
 11
0.0
 21
0.0
 31
0.0
  0
LINE
  5
F293
330
F28F
100
AcDbEntity
  8
0
  6
ByBlock
 62
     0
370
    -2
380
     1
100
AcDbLine
 10
0.0
 20
0.0
 30
0.0
 11
-0.5
 21
0.5
 31
0.0
  0
ENDBLK
  5
F294
330
F28F
100
AcDbEntity
  8
0
100
AcDbBlockEnd
  0
BLOCK
  5
F296
330
F295
100
AcDbEntity
  8
0
100
AcDbBlockBegin
  2
_ArchTick
 70
     0
 10
0.0
 20
0.0
 30
0.0
  3
_ArchTick
  1

  0
LWPOLYLINE
  5
F297
330
F295
100
AcDbEntity
  8
0
  6
ByBlock
 62
     0
100
AcDbPolyline
 90
        2
 70
     0
 43
0.15
 10
-0.5
 20
-0.5
 10
0.5
 20
0.5
  0
ENDBLK
  5
F298
330
F295
100
AcDbEntity
  8
0
100
AcDbBlockEnd
  0
ENDSEC
  0
SECTION
  2
ENTITIES
  0
LINE
  5
1CA
330
A
100
AcDbEntity
  8
DO NOT PLOT
  6
Continuous
370
     0
100
AcDbLine
 10
-6.644635105539456
 20
-5.500183207288167
 30
0.0
 11
6.462836087962712
 21
-5.500183207288167
 31
0.0
  0
LWPOLYLINE
  5
EB42
330
A
100
AcDbEntity
  8
DO NOT PLOT
  6
Continuous
370
     0
100
AcDbPolyline
 90
        4
 70
     1
 43
0.0
 10
7.248407881984945
 20
-5.510625792532308
 10
-7.412140354949912
 20
-5.510625792532308
 10
-7.412140354949912
 20
9.647234174636466
 10
7.248407881984945
 20
9.647234174636466
  0
LINE
  5
ECFD
330
A
100
AcDbEntity
  8
0
100
AcDbLine
 10
-5.299590076328033
 20
-2.618957517576801
 30
0.0
 11
-5.299590076339248
 21
-0.0813963329221652
 31
0.0
  0
LINE
  5
ECFE
330
A
100
AcDbEntity
  8
0
100
AcDbLine
 10
-5.299590076361504
 20
7.400384484872325
 30
0.0
 11
-4.428630478934188
 21
7.40038448487225
 31
0.0
  0
LINE
  5
ECFF
330
A
100
AcDbEntity
  8
0
100
AcDbLine
 10
-1.178630478934215
 20
7.40038448487232
 30
0.0
 11
1.410116345388025
 21
7.40038448487232
 31
0.0
  0
LINE
  5
ED00
330
A
100
AcDbEntity
  8
0
100
AcDbLine
 10
1.974040870909483
 20
7.40038448487232
 30
0.0
 11
6.387764715796357
 21
7.400384484872317
 31
0.0
  0
HATCH
  5
ED01
330
A
100
AcDbEntity
  8
0
100
AcDbHatch
 10
0.0
 20
0.0
 30
0.0
210
0.0
220
0.0
230
1.0
  2
ANSI31
 70
     0
 71
     0
 91
        2
 92
        1
 93
        3
 72
     1
 10
-0.7975393034677083
 20
1.906642087453724
 11
-0.8076708815291835
 21
1.906642087453724
 72
     1
 10
-0.8076708815291835
 20
1.906642087453724
 11
-0.7975360174134139
 21
1.906398834060739
 72
     1
 10
-0.7975360174134139
 20
1.906398834060739
 11
-0.7975393034677083
 21
1.906642087453724
 97
        0
 92
        1
 93
        4
 72
     1
 10
-1.928630478934201
 20
1.906642087453724
 11
-1.928630478934231
 21
2.656642087453849
 72
     1
 10
-1.928630478934231
 20
2.656642087453849
 11
-5.29959007633696
 21
2.656642087457173
 72
     1
 10
-5.29959007633696
 20
2.656642087457173
 11
-5.299590076339248
 21
1.906642087453724
 72
     1
 10
-5.299590076339248
 20
1.906642087453724
 11
-1.928630478934201
 21
1.906642087453724
 97
        0
 75
     0
 76
     1
 52
270.0
 41
1.5
 77
     0
 78
     1
 53
315.0
 43
-61.01864025549666
 44
-17.24485491383619
 45
0.1325825214724777
 46
0.1325825214724776
 79
     0
 98
        1
 10
-1.732315382422519
 20
2.528895902497434
1001
GradientColor1ACI
1070
     5
1001
GradientColor2ACI
1070
     2
1001
ACAD
1010
11.79772036929687
1020
16.32757213013064
1030
0.0
  0
LINE
  5
ED02
330
A
100
AcDbEntity
  8
0
100
AcDbLine
 10
-4.174590076326231
 20
2.656642087453723
 30
0.0
 11
-4.174590076326231
 21
5.156642087453728
 31
0.0
  0
HATCH
  5
ED03
330
A
100
AcDbEntity
  8
0
100
AcDbHatch
 10
0.0
 20
0.0
 30
0.0
210
0.0
220
0.0
230
1.0
  2
ANSI31
 70
     0
 71
     0
 91
        1
 92
        7
 72
     0
 73
     1
 93
      212
 10
-3.285995139607571
 20
1.226664851150834
 10
-3.250775647121421
 20
1.274894001207093
 10
-3.217570551595051
 20
1.327098170474662
 10
-3.186623039703426
 20
1.383434107880471
 10
-3.158176298121552
 20
1.444058562351441
 10
-3.132473513524408
 20
1.509128282814509
 10
-3.109757872587003
 20
1.578800018196594
 10
-3.090272561984271
 20
1.653230517424623
 10
-3.074260768391261
 20
1.732576529425524
 10
-3.061965678482913
 20
1.816994803126222
 10
-3.053630478934216
 20
1.906642087453724
 10
-3.627483396420835
 20
1.906642087453724
 10
-3.631282335637044
 20
1.903279431050142
 10
-3.642392440891988
 20
1.89344524722834
 10
-3.66038364359516
 20
1.87752021407175
 10
-3.684825875156043
 20
1.855885009663788
 10
-3.715289066984118
 20
1.828920312087887
 10
-3.751343150488871
 20
1.797006799427463
 10
-3.792558057079808
 20
1.760525149765948
 10
-3.838503718166371
 20
1.71985604118676
 10
-3.888750065158085
 20
1.675380151773331
 10
-3.942867029464443
 20
1.627478159609078
 10
-4.000424542494889
 20
1.576530742777431
 10
-4.060992535658946
 20
1.522918579361809
 10
-4.124140940366082
 20
1.467022347445644
 10
-4.189439688025792
 20
1.409222725112353
 10
-4.25645871004756
 20
1.349900390445365
 10
-4.324767937840866
 20
1.289436021528103
 10
-4.393937302815196
 20
1.228210296443992
 10
-4.463536736380041
 20
1.166603893276457
 10
-4.533136169944889
 20
1.104997490108924
 10
-4.602305534919216
 20
1.043771765024813
 10
-4.670614762712538
 20
0.9833073961075513
 10
-4.737633784734292
 20
0.9239850614405638
 10
-4.802932532394001
 20
0.8661854391072756
 10
-4.866080937101137
 20
0.8102892071911067
 10
-4.926648930265193
 20
0.7566770437754853
 10
-4.984206443295653
 20
0.705729626943838
 10
-5.038323407602
 20
0.6578276347795891
 10
-5.088569754593712
 20
0.6133517453661553
 10
-5.134515415680289
 20
0.5726826367869676
 10
-5.175730322271212
 20
0.53620098712545
 10
-5.211784405775964
 20
0.5042874744650261
 10
-5.242247597604055
 20
0.4773227768891239
 10
-5.266689829164923
 20
0.4556875724811631
 10
-5.284681031868096
 20
0.4397625393245681
 10
-5.299590076339248
 20
0.426565699099185
 10
-5.299590076339248
 20
0.4237240905095617
 10
-5.299590076331518
 20
-0.0813963329221652
 10
-5.298796182137968
 20
-0.0813963329221652
 10
-5.29647441607765
 20
-0.0813963329221652
 10
-5.292714652973507
 20
-0.0813963329221652
 10
-5.287606767640787
 20
-0.0813963329221652
 10
-5.281240634894736
 20
-0.0813963329221652
 10
-5.273706129550582
 20
-0.0813963329221652
 10
-5.265093126423558
 20
-0.0813963329221652
 10
-5.255491500328921
 20
-0.0813963329221652
 10
-5.244991126081891
 20
-0.0813963329221652
 10
-5.233681878497711
 20
-0.0813963329221652
 10
-5.221653632391642
 20
-0.0813963329221652
 10
-5.208996262578884
 20
-0.0813963329221652
 10
-5.195799643874713
 20
-0.0813963329221652
 10
-5.182153651094346
 20
-0.0813963329221652
 10
-5.168148159053011
 20
-0.0813963329221652
 10
-5.153873042565968
 20
-0.0813963329221652
 10
-5.139418176448451
 20
-0.0813963329221652
 10
-5.124873435515688
 20
-0.0813963329221652
 10
-5.110328694582938
 20
-0.0813963329221652
 10
-5.09587382846542
 20
-0.0813963329221652
 10
-5.081598711978378
 20
-0.0813963329221652
 10
-5.067593219937058
 20
-0.0813963329221652
 10
-5.05394722715669
 20
-0.0813963329221652
 10
-5.040750608452504
 20
-0.0813963329221652
 10
-5.028093238639761
 20
-0.0813963329221652
 10
-5.016064992533664
 20
-0.0813963329221652
 10
-5.004755744949497
 20
-0.0813963329221652
 10
-4.994255370702481
 20
-0.0813963329221652
 10
-4.984653744607832
 20
-0.0813963329221652
 10
-4.976040741480822
 20
-0.0813963329221652
 10
-4.968506236136652
 20
-0.0813963329221652
 10
-4.962140103390601
 20
-0.0813963329221652
 10
-4.957032218057881
 20
-0.0813963329221652
 10
-4.950156794692126
 20
-0.0813963329221652
 10
-4.946693968406201
 20
-0.0360617117663802
 10
-4.940564181196386
 20
0.0050973768593847
 10
-4.931921403381146
 20
0.042334345362824
 10
-4.920919605278903
 20
0.0759026061516464
 10
-4.907712757208122
 20
0.106055571633564
 10
-4.892454829487242
 20
0.1330466542162894
 10
-4.875299792434695
 20
0.157129266307531
 10
-4.856401616368947
 20
0.1785568203149976
 10
-4.835914271608422
 20
0.1975827286464051
 10
-4.813991728471569
 20
0.2144604037094586
 10
-4.790787957276839
 20
0.2294432579118704
 10
-4.76645692834267
 20
0.2427847036613526
 10
-4.741152611987494
 20
0.2547381533656177
 10
-4.715028978529794
 20
0.2655570194323671
 10
-4.688239998287961
 20
0.2754947142693238
 10
-4.660939641580476
 20
0.2848046502841894
 10
-4.633281878725789
 20
0.2937402398846727
 10
-4.605420680042263
 20
0.3025548954785
 10
-4.577510015848466
 20
0.3115020294733624
 10
-4.549703856462791
 20
0.3208350542769827
 10
-4.522156172203628
 20
0.3308073822970661
 10
-4.49502093338949
 20
0.3416724259413248
 10
-4.468452110338795
 20
0.3536835976174713
 10
-4.44260367336998
 20
0.3670943097332104
 10
-4.417629592801496
 20
0.3821579746962582
 10
-4.393683838951793
 20
0.3991280049143269
 10
-4.370920382139296
 20
0.4182578127951217
 10
-4.349493192682466
 20
0.4398008107463546
 10
-4.329556240899754
 20
0.4640104111757381
 10
-4.311263497109584
 20
0.4911400264909808
 10
-4.294768931630406
 20
0.5214430690997915
 10
-4.280226514780671
 20
0.5551729514098894
 10
-4.267790216878828
 20
0.5925830858289727
 10
-4.257614008243287
 20
0.6339268847647645
 10
-4.249851859192538
 20
0.6794577606249659
 10
-4.244657740044991
 20
0.7294291258172933
 10
-4.244356520628861
 20
0.7294292028555303
 10
-4.243475595921346
 20
0.7294294281559699
 10
-4.242049066233697
 20
0.7294297929973183
 10
-4.240111031877169
 20
0.7294302886582811
 10
-4.237695593163002
 20
0.7294309064175435
 10
-4.234836850402493
 20
0.7294316375537973
 10
-4.231568903906882
 20
0.7294324733457414
 10
-4.227925853987422
 20
0.7294334050720642
 10
-4.223941800955365
 20
0.7294344240114575
 10
-4.219650845121996
 20
0.7294355214426203
 10
-4.215087086798539
 20
0.729436688644234
 10
-4.210284626296291
 20
0.7294379168950043
 10
-4.205277563926492
 20
0.7294391974736129
 10
-4.200100000000381
 20
0.729440521658762
 10
-4.194786034829256
 20
0.7294418807291363
 10
-4.189369768724339
 20
0.7294432659634352
 10
-4.183885301996915
 20
0.7294446686403468
 10
-4.178366734958223
 20
0.7294460800385663
 10
-4.172848167919531
 20
0.7294474914367896
 10
-4.167363701192107
 20
0.7294488941136974
 10
-4.161947435087191
 20
0.7294502793479963
 10
-4.156633469916066
 20
0.7294516384183744
 10
-4.151455905989955
 20
0.7294529626035198
 10
-4.146448843620156
 20
0.7294542431821319
 10
-4.141646383117893
 20
0.7294554714328987
 10
-4.137082624794451
 20
0.7294566386345194
 10
-4.132791668961083
 20
0.7294577360656751
 10
-4.128807615929027
 20
0.7294587550050721
 10
-4.125164566009566
 20
0.7294596867313912
 10
-4.12189661951394
 20
0.7294605225233353
 10
-4.119037876753417
 20
0.7294612536595926
 10
-4.112075729871455
 20
0.7294630342598181
 10
-4.112075729871455
 20
0.7297469508931043
 10
-4.112075729871455
 20
0.7305772731225373
 10
-4.112075729871455
 20
0.7319218594424541
 10
-4.112075729871455
 20
0.7337485683471982
 10
-4.112075729871455
 20
0.7360252583311207
 10
-4.112075729871455
 20
0.7387197878885658
 10
-4.112075729871455
 20
0.7418000155138698
 10
-4.112075729871455
 20
0.7452337997013876
 10
-4.112075729871455
 20
0.7489889989454559
 10
-4.112075729871455
 20
0.7530334717404257
 10
-4.112075729871455
 20
0.7573350765806337
 10
-4.112075729871455
 20
0.7618616719604347
 10
-4.112075729871455
 20
0.766581116374165
 10
-4.112075729871455
 20
0.7714612683161759
 10
-4.112075729871455
 20
0.7764699862808043
 10
-4.112075729871455
 20
0.7815751287624009
 10
-4.112075729871455
 20
0.7867445542553062
 10
-4.112075729871455
 20
0.7919461212538677
 10
-4.112075729871455
 20
0.7971476882524327
 10
-4.112075729871455
 20
0.8023171137453378
 10
-4.112075729871455
 20
0.8074222562269309
 10
-4.112075729871455
 20
0.8124309741915627
 10
-4.112075729871455
 20
0.8173111261335701
 10
-4.112075729871455
 20
0.8220305705473043
 10
-4.112075729871455
 20
0.8265571659271016
 10
-4.112075729871455
 20
0.830858770767313
 10
-4.112075729871455
 20
0.8349032435622827
 10
-4.112075729871455
 20
0.838658442806351
 10
-4.112075729871455
 20
0.8420922269938689
 10
-4.112075729871455
 20
0.8451724546191766
 10
-4.112075729871455
 20
0.8478669841766182
 10
-4.112075729871455
 20
0.8501436741605408
 10
-4.112075729871455
 20
0.8519703830652883
 10
-4.112075729871455
 20
0.8533149693852051
 10
-4.112075729871455
 20
0.8541452916146381
 10
-4.112075729871455
 20
0.8544292082479277
 10
-4.109840439351521
 20
0.8543267321612324
 10
-4.103296692241706
 20
0.85412380318576
 10
-4.092687675217
 20
0.8539771702484442
 10
-4.078256574952398
 20
0.8540435822762002
 10
-4.060246578122863
 20
0.8544797881959691
 10
-4.038900871403406
 20
0.8554425369346628
 10
-4.014462641469001
 20
0.8570885774192181
 10
-3.987175074994631
 20
0.8595746585765542
 10
-3.957281358655272
 20
0.8630575293336011
 10
-3.925024679125946
 20
0.867693938617285
 10
-3.890648223081618
 20
0.8736406353545358
 10
-3.854395177197281
 20
0.8810543684722729
 10
-3.816508728147901
 20
0.8900918868974255
 10
-3.777232062608497
 20
0.9009099395569242
 10
-3.736808367254035
 20
0.913665275377691
 10
-3.695480828759507
 20
0.9285146432866495
 10
-3.653492633799892
 20
0.9456147922107358
 10
-3.611086969050183
 20
0.9651224710768664
 10
-3.568507021185374
 20
0.987194428811974
 10
-3.525995976880443
 20
1.011987414342981
 10
-3.483797022810384
 20
1.039658176596819
 10
-3.442153345650162
 20
1.070363464500404
 10
-3.401308132074794
 20
1.104260026980677
 10
-3.361504568759237
 20
1.141504612964554
 10
-3.322985842378506
 20
1.182253971378965
 97
        0
 75
     0
 76
     1
 52
270.0
 41
1.5
 77
     0
 78
     1
 53
315.0
 43
-61.01864025549666
 44
-17.24485491383619
 45
0.1325825214724777
 46
0.1325825214724776
 79
     0
 47
0.0065704512198566
 98
        1
 10
-3.96098253595327
 20
1.187671250977254
1001
GradientColor1ACI
1070
     5
1001
GradientColor2ACI
1070
     2
1001
ACAD
1010
11.79772036929687
1020
16.32757213013064
1030
0.0
  0
HATCH
  5
ED04
330
A
100
AcDbEntity
  8
0
100
AcDbHatch
 10
0.0
 20
0.0
 30
0.0
210
0.0
220
0.0
230
1.0
  2
ANSI31
 70
     0
 71
     0
 91
        1
 92
        1
 93
        6
 72
     1
 10
-1.928630478934215
 20
1.906642087453724
 11
-1.178630478934215
 21
1.906642087453724
 72
     1
 10
-1.178630478934215
 20
1.906642087453724
 11
-1.178630478934215
 21
5.224974792932014
 72
     1
 10
-1.178630478934215
 20
5.224974792932014
 11
-1.178630478934215
 21
7.40038448487232
 72
     1
 10
-1.178630478934215
 20
7.40038448487232
 11
-1.928630478934188
 21
7.400384484872307
 72
     1
 10
-1.928630478934188
 20
7.400384484872307
 11
-1.928630478934188
 21
6.27538448487225
 72
     1
 10
-1.928630478934188
 20
6.27538448487225
 11
-1.928630478934215
 21
1.906642087453723
 97
        0
 75
     0
 76
     1
 52
0.0
 41
1.5
 77
     0
 78
     1
 53
45.0
 43
-117.6540127141902
 44
-0.9675308691504024
 45
-0.1325825214724776
 46
0.1325825214724777
 79
     0
 98
        1
 10
-1.709088393188459
 20
3.468093573963789
1001
GradientColor1ACI
1070
     5
1001
GradientColor2ACI
1070
     2
1001
ACAD
1010
12.56254315222596
1020
18.20207213013064
1030
0.0
  0
LINE
  5
ED05
330
A
100
AcDbEntity
  8
0
100
AcDbLine
 10
-1.178630478934215
 20
1.906642087453724
 30
0.0
 11
-3.053630478934216
 21
1.906642087453724
 31
0.0
  0
LINE
  5
ED06
330
A
100
AcDbEntity
  8
0
100
AcDbLine
 10
-3.627483396420848
 20
1.906642087453724
 30
0.0
 11
-5.299590076339248
 21
1.906642087453724
 31
0.0
  0
LINE
  5
ED07
330
A
100
AcDbEntity
  8
0
100
AcDbLine
 10
-1.928630478934215
 20
2.656642087453723
 30
0.0
 11
-4.174590076326231
 21
2.656642087453723
 31
0.0
  0
LINE
  5
ED08
330
A
100
AcDbEntity
  8
0
100
AcDbLine
 10
-4.174590076326231
 20
5.156642087453728
 30
0.0
 11
-5.299590076339248
 21
5.156642087453723
 31
0.0
  0
LWPOLYLINE
  5
ED09
330
A
100
AcDbEntity
  8
0
100
AcDbPolyline
 90
       37
 70
   128
 43
0.0
 10
-3.627483396420835
 20
1.906642087453724
 10
-3.631282335637044
 20
1.903279431050142
 10
-3.642392440891988
 20
1.89344524722834
 10
-3.66038364359516
 20
1.87752021407175
 10
-3.684825875156043
 20
1.855885009663788
 10
-3.715289066984118
 20
1.828920312087887
 10
-3.751343150488871
 20
1.797006799427463
 10
-3.792558057079808
 20
1.760525149765948
 10
-3.838503718166371
 20
1.71985604118676
 10
-3.888750065158085
 20
1.675380151773331
 10
-3.942867029464443
 20
1.627478159609078
 10
-4.000424542494889
 20
1.576530742777431
 10
-4.060992535658946
 20
1.522918579361809
 10
-4.124140940366082
 20
1.467022347445644
 10
-4.189439688025792
 20
1.409222725112353
 10
-4.25645871004756
 20
1.349900390445365
 10
-4.324767937840866
 20
1.289436021528103
 10
-4.393937302815196
 20
1.228210296443992
 10
-4.463536736380041
 20
1.166603893276457
 10
-4.533136169944889
 20
1.104997490108924
 10
-4.602305534919216
 20
1.043771765024813
 10
-4.670614762712538
 20
0.9833073961075513
 10
-4.737633784734292
 20
0.9239850614405638
 10
-4.802932532394001
 20
0.8661854391072756
 10
-4.866080937101137
 20
0.8102892071911067
 10
-4.926648930265193
 20
0.7566770437754853
 10
-4.984206443295653
 20
0.705729626943838
 10
-5.038323407602
 20
0.6578276347795891
 10
-5.088569754593712
 20
0.6133517453661553
 10
-5.134515415680289
 20
0.5726826367869676
 10
-5.175730322271212
 20
0.53620098712545
 10
-5.211784405775964
 20
0.5042874744650261
 10
-5.242247597604055
 20
0.4773227768891239
 10
-5.266689829164923
 20
0.4556875724811631
 10
-5.284681031868096
 20
0.4397625393245681
 10
-5.295791137123038
 20
0.4299283555027699
 10
-5.299590076339248
 20
0.426565699099185
  0
LWPOLYLINE
  5
ED0A
330
A
100
AcDbEntity
  8
0
100
AcDbPolyline
 90
      181
 70
   128
 43
0.0
 10
-5.299590076339248
 20
-0.0813963329221652
 10
-5.298796182137968
 20
-0.0813963329221652
 10
-5.29647441607765
 20
-0.0813963329221652
 10
-5.292714652973507
 20
-0.0813963329221652
 10
-5.287606767640787
 20
-0.0813963329221652
 10
-5.281240634894736
 20
-0.0813963329221652
 10
-5.273706129550582
 20
-0.0813963329221652
 10
-5.265093126423558
 20
-0.0813963329221652
 10
-5.255491500328921
 20
-0.0813963329221652
 10
-5.244991126081891
 20
-0.0813963329221652
 10
-5.233681878497711
 20
-0.0813963329221652
 10
-5.221653632391642
 20
-0.0813963329221652
 10
-5.208996262578884
 20
-0.0813963329221652
 10
-5.195799643874713
 20
-0.0813963329221652
 10
-5.182153651094346
 20
-0.0813963329221652
 10
-5.168148159053011
 20
-0.0813963329221652
 10
-5.153873042565968
 20
-0.0813963329221652
 10
-5.139418176448451
 20
-0.0813963329221652
 10
-5.124873435515688
 20
-0.0813963329221652
 10
-5.110328694582938
 20
-0.0813963329221652
 10
-5.09587382846542
 20
-0.0813963329221652
 10
-5.081598711978378
 20
-0.0813963329221652
 10
-5.067593219937058
 20
-0.0813963329221652
 10
-5.05394722715669
 20
-0.0813963329221652
 10
-5.040750608452504
 20
-0.0813963329221652
 10
-5.028093238639761
 20
-0.0813963329221652
 10
-5.016064992533664
 20
-0.0813963329221652
 10
-5.004755744949497
 20
-0.0813963329221652
 10
-4.994255370702481
 20
-0.0813963329221652
 10
-4.984653744607832
 20
-0.0813963329221652
 10
-4.976040741480822
 20
-0.0813963329221652
 10
-4.968506236136652
 20
-0.0813963329221652
 10
-4.962140103390601
 20
-0.0813963329221652
 10
-4.957032218057881
 20
-0.0813963329221652
 10
-4.95327245495374
 20
-0.0813963329221652
 10
-4.950950688893406
 20
-0.0813963329221652
 10
-4.950156794692126
 20
-0.0813963329221652
 10
-4.946693968406201
 20
-0.0360617117663802
 10
-4.940564181196386
 20
0.0050973768593847
 10
-4.931921403381146
 20
0.042334345362824
 10
-4.920919605278903
 20
0.0759026061516464
 10
-4.907712757208122
 20
0.106055571633564
 10
-4.892454829487242
 20
0.1330466542162894
 10
-4.875299792434695
 20
0.157129266307531
 10
-4.856401616368947
 20
0.1785568203149976
 10
-4.835914271608422
 20
0.1975827286464051
 10
-4.813991728471569
 20
0.2144604037094586
 10
-4.790787957276839
 20
0.2294432579118704
 10
-4.76645692834267
 20
0.2427847036613526
 10
-4.741152611987494
 20
0.2547381533656177
 10
-4.715028978529794
 20
0.2655570194323671
 10
-4.688239998287961
 20
0.2754947142693238
 10
-4.660939641580476
 20
0.2848046502841894
 10
-4.633281878725775
 20
0.2937402398846762
 10
-4.605420680042293
 20
0.3025548954784964
 10
-4.577510015848481
 20
0.3115020294733624
 10
-4.549703856462791
 20
0.3208350542769827
 10
-4.522156172203628
 20
0.3308073822970661
 10
-4.49502093338949
 20
0.3416724259413248
 10
-4.468452110338795
 20
0.3536835976174713
 10
-4.44260367336998
 20
0.3670943097332104
 10
-4.417629592801496
 20
0.3821579746962582
 10
-4.393683838951793
 20
0.3991280049143269
 10
-4.370920382139296
 20
0.4182578127951217
 10
-4.349493192682466
 20
0.4398008107463546
 10
-4.329556240899754
 20
0.4640104111757381
 10
-4.311263497109584
 20
0.4911400264909808
 10
-4.294768931630406
 20
0.5214430690997915
 10
-4.280226514780671
 20
0.5551729514098894
 10
-4.267790216878828
 20
0.5925830858289727
 10
-4.257614008243287
 20
0.6339268847647645
 10
-4.249851859192538
 20
0.6794577606249659
 10
-4.244657740044991
 20
0.7294291258172933
 10
-4.244356520628861
 20
0.7294292028555303
 10
-4.243475595921346
 20
0.7294294281559699
 10
-4.242049066233697
 20
0.7294297929973183
 10
-4.240111031877169
 20
0.7294302886582811
 10
-4.237695593163002
 20
0.7294309064175435
 10
-4.234836850402493
 20
0.7294316375537973
 10
-4.231568903906882
 20
0.7294324733457414
 10
-4.227925853987422
 20
0.7294334050720642
 10
-4.223941800955365
 20
0.7294344240114575
 10
-4.219650845121996
 20
0.7294355214426203
 10
-4.215087086798539
 20
0.729436688644234
 10
-4.210284626296291
 20
0.7294379168950043
 10
-4.205277563926492
 20
0.7294391974736129
 10
-4.200100000000381
 20
0.729440521658762
 10
-4.194786034829256
 20
0.7294418807291363
 10
-4.189369768724339
 20
0.7294432659634352
 10
-4.183885301996915
 20
0.7294446686403468
 10
-4.178366734958223
 20
0.7294460800385663
 10
-4.172848167919531
 20
0.7294474914367896
 10
-4.167363701192107
 20
0.7294488941136974
 10
-4.161947435087191
 20
0.7294502793479963
 10
-4.156633469916066
 20
0.7294516384183744
 10
-4.151455905989955
 20
0.7294529626035198
 10
-4.146448843620156
 20
0.7294542431821319
 10
-4.141646383117893
 20
0.7294554714328987
 10
-4.137082624794451
 20
0.7294566386345194
 10
-4.132791668961083
 20
0.7294577360656751
 10
-4.128807615929027
 20
0.7294587550050721
 10
-4.125164566009566
 20
0.7294596867313912
 10
-4.12189661951394
 20
0.7294605225233353
 10
-4.119037876753417
 20
0.7294612536595926
 10
-4.116622438039279
 20
0.729461871418855
 10
-4.114684403682751
 20
0.7294623670798144
 10
-4.113257873995087
 20
0.7294627319211662
 10
-4.112376949287571
 20
0.7294629572216023
 10
-4.112075729871455
 20
0.7294630342598181
 10
-4.112075729871455
 20
0.7297469508931043
 10
-4.112075729871455
 20
0.7305772731225373
 10
-4.112075729871455
 20
0.7319218594424541
 10
-4.112075729871455
 20
0.7337485683471982
 10
-4.112075729871455
 20
0.7360252583311207
 10
-4.112075729871455
 20
0.7387197878885658
 10
-4.112075729871455
 20
0.7418000155138698
 10
-4.112075729871455
 20
0.7452337997013876
 10
-4.112075729871455
 20
0.7489889989454559
 10
-4.112075729871455
 20
0.7530334717404257
 10
-4.112075729871455
 20
0.7573350765806337
 10
-4.112075729871455
 20
0.7618616719604347
 10
-4.112075729871455
 20
0.766581116374165
 10
-4.112075729871455
 20
0.7714612683161759
 10
-4.112075729871455
 20
0.7764699862808043
 10
-4.112075729871455
 20
0.7815751287624009
 10
-4.112075729871455
 20
0.7867445542553062
 10
-4.112075729871455
 20
0.7919461212538677
 10
-4.112075729871455
 20
0.7971476882524327
 10
-4.112075729871455
 20
0.8023171137453378
 10
-4.112075729871455
 20
0.8074222562269309
 10
-4.112075729871455
 20
0.8124309741915627
 10
-4.112075729871455
 20
0.8173111261335701
 10
-4.112075729871455
 20
0.8220305705473043
 10
-4.112075729871455
 20
0.8265571659271016
 10
-4.112075729871455
 20
0.830858770767313
 10
-4.112075729871455
 20
0.8349032435622827
 10
-4.112075729871455
 20
0.838658442806351
 10
-4.112075729871455
 20
0.8420922269938689
 10
-4.112075729871455
 20
0.8451724546191766
 10
-4.112075729871455
 20
0.8478669841766182
 10
-4.112075729871455
 20
0.8501436741605408
 10
-4.112075729871455
 20
0.8519703830652883
 10
-4.112075729871455
 20
0.8533149693852051
 10
-4.112075729871455
 20
0.8541452916146381
 10
-4.112075729871455
 20
0.8544292082479277
 10
-4.109840439351521
 20
0.8543267321612324
 10
-4.103296692241706
 20
0.85412380318576
 10
-4.092687675217
 20
0.8539771702484442
 10
-4.078256574952398
 20
0.8540435822762002
 10
-4.060246578122863
 20
0.8544797881959691
 10
-4.038900871403406
 20
0.8554425369346628
 10
-4.014462641469001
 20
0.8570885774192181
 10
-3.987175074994631
 20
0.8595746585765542
 10
-3.957281358655272
 20
0.8630575293336011
 10
-3.925024679125946
 20
0.867693938617285
 10
-3.890648223081618
 20
0.8736406353545358
 10
-3.854395177197281
 20
0.8810543684722729
 10
-3.816508728147901
 20
0.8900918868974255
 10
-3.777232062608497
 20
0.9009099395569242
 10
-3.736808367254035
 20
0.913665275377691
 10
-3.695480828759507
 20
0.9285146432866495
 10
-3.653492633799892
 20
0.9456147922107358
 10
-3.611086969050183
 20
0.9651224710768664
 10
-3.568507021185374
 20
0.987194428811974
 10
-3.525995976880443
 20
1.011987414342981
 10
-3.483797022810384
 20
1.039658176596819
 10
-3.442153345650162
 20
1.070363464500404
 10
-3.401308132074794
 20
1.104260026980677
 10
-3.361504568759237
 20
1.141504612964554
 10
-3.322985842378506
 20
1.182253971378965
 10
-3.285995139607571
 20
1.226664851150834
 10
-3.250775647121421
 20
1.274894001207093
 10
-3.217570551595051
 20
1.327098170474662
 10
-3.186623039703426
 20
1.383434107880471
 10
-3.158176298121552
 20
1.444058562351441
 10
-3.132473513524408
 20
1.509128282814509
 10
-3.109757872587003
 20
1.578800018196594
 10
-3.090272561984271
 20
1.653230517424623
 10
-3.074260768391261
 20
1.732576529425524
 10
-3.061965678482913
 20
1.816994803126222
 10
-3.053630478934216
 20
1.906642087453724
  0
LINE
  5
ED0B
330
A
100
AcDbEntity
  8
0
100
AcDbLine
 10
-3.053630478934216
 20
1.906642087453724
 30
0.0
 11
-3.627483396420835
 21
1.906642087453724
 31
0.0
  0
LINE
  5
ED0C
330
A
100
AcDbEntity
  8
0
100
AcDbLine
 10
-5.299590076339248
 20
1.906642087453724
 30
0.0
 11
-5.299590076326231
 21
5.156642087453723
 31
0.0
  0
LINE
  5
ED0D
330
A
100
AcDbEntity
  8
0
100
AcDbLine
 10
-5.299590076339248
 20
0.426565699099185
 30
0.0
 11
-5.299590076339248
 21
1.906642087453724
 31
0.0
  0
LINE
  5
ED0E
330
A
100
AcDbEntity
  8
0
100
AcDbLine
 10
-4.174590076326231
 20
2.656642087453723
 30
0.0
 11
-5.299590076336946
 21
2.656642087457173
 31
0.0
  0
LINE
  5
ED0F
330
A
100
AcDbEntity
  8
0
100
AcDbLine
 10
-5.299590076336946
 20
2.656642087457173
 30
0.0
 11
-4.174590076326231
 21
5.156642087453728
 31
0.0
  0
LINE
  5
ED10
330
A
100
AcDbEntity
  8
0
100
AcDbLine
 10
-4.174590076326231
 20
2.656642087453723
 30
0.0
 11
-5.299590076326231
 21
5.156642087453723
 31
0.0
  0
LINE
  5
ED13
330
A
100
AcDbEntity
  8
0
100
AcDbLine
 10
-1.928630478934215
 20
2.656642087453723
 30
0.0
 11
-1.928630478934201
 21
6.27538448487225
 31
0.0
  0
LINE
  5
ED14
330
A
100
AcDbEntity
  8
0
100
AcDbLine
 10
-1.178630478934215
 20
1.906642087453724
 30
0.0
 11
-1.178630478934215
 21
4.175915398878666
 31
0.0
  0
LINE
  5
ED15
330
A
100
AcDbEntity
  8
0
100
AcDbLine
 10
-1.178630478934215
 20
4.752684442420251
 30
0.0
 11
-1.178630478934215
 21
7.400384484872325
 31
0.0
  0
LINE
  5
ED16
330
A
100
AcDbEntity
  8
0
100
AcDbLine
 10
-1.928630478934215
 20
2.656642087453723
 30
0.0
 11
-1.928630478934215
 21
1.906642087453724
 31
0.0
  0
LINE
  5
ED17
330
A
100
AcDbEntity
  8
0
100
AcDbLine
 10
1.974040870910734
 20
7.400384484968532
 30
0.0
 11
1.410116345448109
 21
7.400384484968532
 31
0.0
  0
LINE
  5
ED18
330
A
100
AcDbEntity
  8
0
100
AcDbLine
 10
-4.428630478934188
 20
7.400384484872254
 30
0.0
 11
-1.178630478934215
 21
7.40038448487232
 31
0.0
  0
LINE
  5
ED19
330
A
100
AcDbEntity
  8
0
100
AcDbLine
 10
-4.428630478934188
 20
6.27538448487225
 30
0.0
 11
-1.928630478934188
 21
6.27538448487225
 31
0.0
  0
LINE
  5
ED1A
330
A
100
AcDbEntity
  8
0
100
AcDbLine
 10
-4.428630478934188
 20
6.27538448487225
 30
0.0
 11
-1.928630478934188
 21
7.40038448487225
 31
0.0
  0
LINE
  5
ED1B
330
A
100
AcDbEntity
  8
0
100
AcDbLine
 10
-1.928630478934188
 20
6.27538448487225
 30
0.0
 11
-4.428630478934188
 21
7.40038448487225
 31
0.0
  0
LINE
  5
ED1C
330
A
100
AcDbEntity
  8
0
100
AcDbLine
 10
-4.428630478934188
 20
6.27538448487225
 30
0.0
 11
-4.428630478934202
 21
7.400384484872254
 31
0.0
  0
LINE
  5
ED1D
330
A
100
AcDbEntity
  8
0
100
AcDbLine
 10
-1.928630478934188
 20
6.27538448487225
 30
0.0
 11
-1.928630478934188
 21
7.40038448487225
 31
0.0
  0
LINE
  5
ED1E
330
A
100
AcDbEntity
  8
0
100
AcDbLine
 10
-1.178630478934215
 20
4.175915398878666
 30
0.0
 11
-1.178630478934215
 21
4.752684442420251
 31
0.0
  0
LINE
  5
ED1F
330
A
100
AcDbEntity
  8
0
100
AcDbLine
 10
-5.299590076339248
 20
-0.0813963329221652
 30
0.0
 11
-5.299590076339248
 21
0.426565699099185
 31
0.0
  0
LINE
  5
ED20
330
A
100
AcDbEntity
  8
0
100
AcDbLine
 10
-5.299590076339248
 20
5.156642087453723
 30
0.0
 11
-5.299590076339065
 21
7.400384484872325
 31
0.0
  0
DIMENSION
  5
ED24
330
A
100
AcDbEntity
  8
0
100
AcDbDimension
280
     0
  2
*D3
 10
-5.795389490297023
 20
-0.0735900714233681
 30
0.0
 11
-5.977265666115576
 21
3.66339720672448
 31
0.0
 70
    32
  1
{\fArial|b0|i0|c0|p34;\H0.58667x;\W1;7-1/2"}
 71
     5
 42
7.473974556295694
 73
     0
 74
     0
 75
     0
  3
DIM 2
100
AcDbAlignedDimension
 13
-5.203073889108836
 23
7.400384484872325
 33
0.0
 14
-5.163013518981557
 24
-0.0735900714233679
 34
0.0
 50
90.0
100
AcDbRotatedDimension
  0
DIMENSION
  5
ED27
330
A
100
AcDbEntity
  8
0
100
AcDbDimension
280
     0
  2
*D6
 10
1.974040870910734
 20
7.981557760056167
 30
0.0
 11
-1.704027658296126
 21
8.199571794590404
 31
0.0
 70
   160
  1
{\fArial|b0|i0|c0|p34;\H0.58667x;\W1;7-1/4"}
 71
     5
 42
7.273630947272238
 73
     0
 74
     0
 75
     0
  3
DIM 2
100
AcDbAlignedDimension
 13
-5.299590076361504
 23
7.3080157039102
 33
0.0
 14
1.974040870910734
 24
7.333706056555577
 34
0.0
100
AcDbRotatedDimension
  0
LINE
  5
ED28
330
A
100
AcDbEntity
  8
0
100
AcDbLine
 10
1.974040870910734
 20
7.40038448487232
 30
0.0
 11
6.436268459483257
 21
4.824570317032708
 31
0.0
  0
HATCH
  5
ED29
330
A
100
AcDbEntity
  8
0
100
AcDbHatch
 10
0.0
 20
0.0
 30
0.0
210
0.0
220
0.0
230
1.0
  2
ANSI31
 70
     0
 71
     0
 91
        1
 92
        7
 72
     0
 73
     1
 93
      191
 10
-0.1065607530072086
 20
4.81565122706723
 10
-0.084365061289752
 20
4.850833633066526
 10
-0.0641647785019686
 20
4.890873634509531
 10
-0.0461154770664436
 20
4.936142813156226
 10
-0.0303727294057623
 20
4.987012750766597
 10
-0.0170921079425099
 20
5.043855029100638
 10
-0.0064291850992433
 20
5.107041229918311
 10
0.0051278167992237
 20
5.107041229918311
 10
0.0179488657803191
 20
5.107041229918311
 10
0.028368894112397
 20
5.107041229918311
 10
0.0399125198512493
 20
5.107041229918311
 10
0.0522587151663814
 20
5.107041229918311
 10
0.0650864522272983
 20
5.107041229918311
 10
0.0780747032034768
 20
5.107041229918311
 10
0.0909024402643937
 20
5.107041229918311
 10
0.1032486355795257
 20
5.107041229918311
 10
0.114792261318378
 20
5.107041229918311
 10
0.1252122896504559
 20
5.107041229918311
 10
0.1495900283794995
 20
5.107041229918311
 10
0.149591121813792
 20
5.117670682855472
 10
0.1495924843726826
 20
5.127138430197836
 10
0.1495948969769714
 20
5.139045607407697
 10
0.1495986596396293
 20
5.153031466332903
 10
0.1496040723735987
 20
5.168735258821306
 10
0.1496114351918791
 20
5.185796236720756
 10
0.1496159416366893
 20
5.194722936402079
 10
0.1496210481074129
 20
5.203853651879104
 10
0.1496267921056997
 20
5.21314328963282
 10
0.1496332111331711
 20
5.222546756144202
 10
0.1496403426914483
 20
5.232018957894235
 10
0.1496482242821528
 20
5.241514801363901
 10
0.1496568934068776
 20
5.250989193034181
 10
0.1496663875673008
 20
5.260397039386054
 10
0.1496767442649869
 20
5.269693246900503
 10
0.1496880010015857
 20
5.278832722058509
 10
0.1497001952786903
 20
5.287770371341056
 10
0.1497133645979503
 20
5.296461101229119
 10
0.1497275464609871
 20
5.304859818203683
 10
0.1497427783694221
 20
5.312921428745733
 10
0.1497849601293595
 20
5.332770807609088
 10
0.1498711833338362
 20
5.356123254334693
 10
0.2578336664966017
 20
5.382312381060222
 10
0.3557190333839415
 20
5.412758659075768
 10
0.4441374509285155
 20
5.447199351617775
 10
0.5236883162613495
 20
5.485369109425318
 10
0.5949710265133846
 20
5.527002583237496
 10
0.6585849788155898
 20
5.571834423793393
 10
0.7151295702990197
 20
5.619599281832092
 10
0.7652041980945869
 20
5.670031808092685
 10
0.8094082593333169
 20
5.722866653314257
 10
0.848341151146208
 20
5.777838468235901
 10
0.8826022706642007
 20
5.834681903596701
 10
0.9127910150183211
 20
5.893131610135737
 10
0.9395067813395099
 20
5.952922238592103
 10
0.9633489667587936
 20
6.013788439704891
 10
0.984916968407141
 20
6.075464864213175
 10
1.00481018341552
 20
6.137686162856054
 10
1.02362800891496
 20
6.200186986372601
 10
1.0419698420364
 20
6.262701985501954
 10
1.060435079910837
 20
6.324965810983149
 10
1.0796231196693
 20
6.386713113555273
 10
1.100133358442725
 20
6.447678543957432
 10
1.122565193362084
 20
6.507596752928701
 10
1.147518021558404
 20
6.566202391208181
 10
1.175591240162652
 20
6.62323010953495
 10
1.207384246305827
 20
6.678414558648098
 10
1.243496437118899
 20
6.731490389286713
 10
1.284527209732835
 20
6.782192252189886
 10
1.331075961278664
 20
6.830254798096697
 10
1.383742088887323
 20
6.875412677746234
 10
1.443124989689841
 20
6.917400541877596
 10
1.509824060817186
 20
6.955953041229856
 10
1.58443869940033
 20
6.990804826542108
 10
1.667568302570265
 20
7.021690548553443
 10
1.759812267457995
 20
7.048344858002938
 10
1.861769991194485
 20
7.070502405629691
 10
1.974040870910734
 20
7.087897842172782
 10
1.974040870910734
 20
7.098614119357264
 10
1.974040870910734
 20
7.111045000891264
 10
1.974040870910734
 20
7.127333742211681
 10
1.974040870910734
 20
7.136723880094583
 10
1.974040870910734
 20
7.14683736668744
 10
1.974040870910734
 20
7.157593829911365
 10
1.974040870910734
 20
7.168912897687476
 10
1.974040870910734
 20
7.180714197936889
 10
1.974040870910734
 20
7.192917358580722
 10
1.974040870910734
 20
7.205442007540083
 10
1.974040870910734
 20
7.218207772736098
 10
1.974040870910734
 20
7.231134282089882
 10
1.974040870910734
 20
7.24414116352255
 10
1.974040870910734
 20
7.257148044955214
 10
1.974040870910734
 20
7.270074554308999
 10
1.974040870910734
 20
7.282840319505014
 10
1.974040870910734
 20
7.295364968464382
 10
1.974040870910734
 20
7.307568129108211
 10
1.974040870910734
 20
7.319369429357624
 10
1.974040870910734
 20
7.330688497133732
 10
1.974040870910734
 20
7.341444960357657
 10
1.974040870910734
 20
7.351558446950511
 10
1.974040870910734
 20
7.360948584833414
 10
1.974040870910734
 20
7.369535001927482
 10
1.974040870910734
 20
7.40038448487232
 10
1.410116345388025
 20
7.40038448487232
 10
1.404234847544677
 20
7.394369048390389
 10
1.387034240644375
 20
7.376776734150836
 10
1.359180354631639
 20
7.348288534962923
 10
1.321339019450995
 20
7.309585443635922
 10
1.274176065046965
 20
7.261348452979105
 10
1.218357321364102
 20
7.204258555801741
 10
1.154548618346872
 20
7.13899674491311
 10
1.083415785939884
 20
7.066244013122473
 10
1.005624654087603
 20
6.986681353239116
 10
0.921841052734585
 20
6.900989758072304
 10
0.8327308118253212
 20
6.809850220431309
 10
0.7389597613043934
 20
6.713943733125409
 10
0.6411937311162959
 20
6.613951288963874
 10
0.5400985512055812
 20
6.510553880755977
 10
0.4363400515167159
 20
6.404432501310987
 10
0.3305840619943083
 20
6.296268143438182
 10
0.2234964125828256
 20
6.186741799946829
 10
0.1157429332268194
 20
6.076534463646206
 10
0.0079894538708132
 20
5.966327127345584
 10
-0.0990981955406696
 20
5.856800783854235
 10
-0.2048541850630769
 20
5.748636425981428
 10
-0.3086126847519139
 20
5.642515046536443
 10
-0.4097078646626571
 20
5.539117638328546
 10
-0.5074738948507262
 20
5.439125194167019
 10
-0.6012449453716542
 20
5.34321870686112
 10
-0.6903551862808897
 20
5.252079169220136
 10
-0.774138787633909
 20
5.166387574053334
 10
-0.8519299194861885
 20
5.086824914169983
 10
-0.9230627518931767
 20
5.014072182379361
 10
-0.9868714549103783
 20
4.948810371490734
 10
-1.042690198593241
 20
4.891720474313383
 10
-1.089853152997271
 20
4.843483483656579
 10
-1.127694488177886
 20
4.804780392329589
 10
-1.155548374190593
 20
4.776292193141691
 10
-1.178630478934215
 20
4.752684442420251
 10
-1.178630478934215
 20
4.175915398878666
 10
-1.170058015350284
 20
4.175915398878666
 10
-1.160113957592918
 20
4.175915398878666
 10
-1.14708381294536
 20
4.175915398878666
 10
-1.131481929222637
 20
4.175915398878666
 10
-1.122877318900258
 20
4.175915398878666
 10
-1.113822654239747
 20
4.175915398878666
 10
-1.104382228717945
 20
4.175915398878666
 10
-1.094620335811747
 20
4.175915398878666
 10
-1.084601268998049
 20
4.175915398878666
 10
-1.074389321753691
 20
4.175915398878666
 10
-1.064048787555599
 20
4.175915398878666
 10
-1.05364395988058
 20
4.175915398878666
 10
-1.04323913220562
 20
4.175915398878666
 10
-1.032898598007497
 20
4.175915398878666
 10
-1.02268665076314
 20
4.175915398878666
 10
-1.012667583949443
 20
4.175915398878666
 10
-1.002905691043245
 20
4.175915398878666
 10
-0.9934652655214437
 20
4.175915398878666
 10
-0.9844106008609328
 20
4.175915398878666
 10
-0.975805990538582
 20
4.175915398878666
 10
-0.96020410681583
 20
4.175915398878666
 10
-0.9471739621682717
 20
4.175915398878666
 10
-0.9286574408270027
 20
4.175915398878666
 10
-0.9189406577195812
 20
4.238155459960518
 10
-0.9065521108644174
 20
4.294105663686461
 10
-0.8916473726840692
 20
4.344137591816499
 10
-0.874382015601121
 20
4.388622826110622
 10
-0.8549116120381299
 20
4.427932948328818
 10
-0.8333917344177095
 20
4.462439540231067
 10
-0.8099779551624164
 20
4.492514183577365
 10
-0.7848258466948649
 20
4.518528460127693
 10
-0.7580909814376115
 20
4.540853951642037
 10
-0.729928931813241
 20
4.559862239880382
 10
-0.700495270244339
 20
4.575924906602721
 10
-0.6699455691534908
 20
4.589413533569034
 10
-0.6384354009632533
 20
4.600699702539311
 10
-0.6061203380962397
 20
4.610154995273537
 10
-0.5731559529750358
 20
4.618150993531697
 10
-0.5396978180221696
 20
4.625059279073783
 10
-0.5059015056602833
 20
4.631251433659776
 10
-0.4719225883119337
 20
4.637099039049664
 10
-0.437916638399706
 20
4.642973677003434
 10
-0.4040392283461573
 20
4.649246929281074
 10
-0.3704459305739007
 20
4.656290377642565
 10
-0.337292317505522
 20
4.6644756038479
 10
-0.3047339615635778
 20
4.674174189657061
 10
-0.2729264351706533
 20
4.685757716830037
 10
-0.2420253107493337
 20
4.699597767126813
 10
-0.2121861607222044
 20
4.716065922307378
 10
-0.1835645575118505
 20
4.735533764131714
 10
-0.1563160735408289
 20
4.758372874359813
 10
-0.1305962812317816
 20
4.784954834751653
 97
        0
 75
     0
 76
     1
 52
270.0
 41
1.5
 77
     0
 78
     1
 53
315.0
 43
-62.13959356579684
 44
-17.29510299928105
 45
0.1325825214724777
 46
0.1325825214724776
 79
     0
 47
0.0167906585807915
 98
        1
 10
-0.7545358712371453
 20
4.802784419806278
1001
GradientColor1ACI
1070
     5
1001
GradientColor2ACI
1070
     2
1001
ACAD
1010
11.79772036929687
1020
16.32757213013064
1030
0.0
  0
LWPOLYLINE
  5
ED2A
330
A
100
AcDbEntity
  8
0
100
AcDbPolyline
 90
      181
 70
   128
 43
0.0
 10
1.974040870910734
 20
7.087897842172782
 10
1.861769991194485
 20
7.070502405629691
 10
1.759812267457995
 20
7.048344858002938
 10
1.667568302570265
 20
7.021690548553443
 10
1.58443869940033
 20
6.990804826542108
 10
1.509824060817186
 20
6.955953041229856
 10
1.443124989689841
 20
6.917400541877596
 10
1.383742088887323
 20
6.875412677746234
 10
1.331075961278664
 20
6.830254798096697
 10
1.284527209732835
 20
6.782192252189886
 10
1.243496437118899
 20
6.731490389286713
 10
1.207384246305827
 20
6.678414558648098
 10
1.175591240162652
 20
6.62323010953495
 10
1.147518021558404
 20
6.566202391208177
 10
1.122565193362084
 20
6.507596752928701
 10
1.100133358442725
 20
6.447678543957429
 10
1.0796231196693
 20
6.386713113555273
 10
1.060435079910867
 20
6.324965810983147
 10
1.0419698420364
 20
6.26270198550196
 10
1.02362800891496
 20
6.20018698637263
 10
1.00481018341552
 20
6.137686162856065
 10
0.984916968407141
 20
6.075464864213182
 10
0.9633489667587936
 20
6.013788439704891
 10
0.9395067813395099
 20
5.952922238592103
 10
0.9127910150183211
 20
5.893131610135735
 10
0.8826022706642007
 20
5.834681903596696
 10
0.848341151146208
 20
5.777838468235901
 10
0.8094082593333169
 20
5.722866653314257
 10
0.7652041980945869
 20
5.670031808092685
 10
0.7151295702990197
 20
5.619599281832092
 10
0.6585849788155898
 20
5.571834423793393
 10
0.5949710265133846
 20
5.527002583237496
 10
0.5236883162613495
 20
5.485369109425318
 10
0.4441374509285155
 20
5.447199351617775
 10
0.3557190333839415
 20
5.412758659075768
 10
0.2578336664966017
 20
5.382312381060222
 10
0.1498819531355267
 20
5.35612586683204
 10
0.149858320863963
 20
5.351686619850132
 10
0.1498360011491471
 20
5.346594611802575
 10
0.1498149564894575
 20
5.340894936208392
 10
0.149795149383273
 20
5.334632686586592
 10
0.1497765423289437
 20
5.327852956456206
 10
0.1497590978248766
 20
5.32060083933625
 10
0.1497427783694221
 20
5.312921428745733
 10
0.1497275464609871
 20
5.304859818203683
 10
0.1497133645979503
 20
5.296461101229119
 10
0.1497001952786903
 20
5.287770371341056
 10
0.1496880010015857
 20
5.278832722058509
 10
0.1496767442649869
 20
5.269693246900503
 10
0.1496663875673008
 20
5.260397039386054
 10
0.1496568934068776
 20
5.250989193034181
 10
0.1496482242821528
 20
5.241514801363901
 10
0.1496403426914483
 20
5.232018957894235
 10
0.1496332111331711
 20
5.222546756144202
 10
0.1496267921056997
 20
5.21314328963282
 10
0.1496210481074129
 20
5.203853651879104
 10
0.1496159416366893
 20
5.194722936402079
 10
0.1496114351918791
 20
5.185796236720756
 10
0.1496074912713894
 20
5.177118646354162
 10
0.1496040723735987
 20
5.168735258821306
 10
0.1496011409968858
 20
5.160691167641216
 10
0.1495986596396293
 20
5.153031466332903
 10
0.1495965908002077
 20
5.145801248415393
 10
0.1495948969769714
 20
5.139045607407697
 10
0.1495935406683557
 20
5.132809636828841
 10
0.1495924843726826
 20
5.127138430197836
 10
0.1495916905883874
 20
5.122077081033706
 10
0.149591121813792
 20
5.117670682855472
 10
0.1495907405473034
 20
5.113964329182141
 10
0.1495905092873286
 20
5.111003113532745
 10
0.1495903905321896
 20
5.108832129426295
 10
0.1495903467802933
 20
5.107496470381809
 10
0.1495903405300183
 20
5.107041229918311
 10
0.1492358723005012
 20
5.107041229918311
 10
0.1481992199311222
 20
5.107041229918311
 10
0.1465205119007535
 20
5.107041229918311
 10
0.1442398766881254
 20
5.107041229918311
 10
0.1413974427721385
 20
5.107041229918311
 10
0.1380333386315513
 20
5.107041229918311
 10
0.1341876927452077
 20
5.107041229918311
 10
0.1299006335918946
 20
5.107041229918311
 10
0.1252122896504559
 20
5.107041229918311
 10
0.1201627893996786
 20
5.107041229918311
 10
0.114792261318378
 20
5.107041229918311
 10
0.1091408338853981
 20
5.107041229918311
 10
0.1032486355795257
 20
5.107041229918311
 10
0.0971557948795763
 20
5.107041229918311
 10
0.0909024402643937
 20
5.107041229918311
 10
0.0845287002127364
 20
5.107041229918311
 10
0.0780747032034768
 20
5.107041229918311
 10
0.0715805777154017
 20
5.107041229918311
 10
0.0650864522272983
 20
5.107041229918311
 10
0.0586324552180386
 20
5.107041229918311
 10
0.0522587151663814
 20
5.107041229918311
 10
0.0460053605511988
 20
5.107041229918311
 10
0.0399125198512493
 20
5.107041229918311
 10
0.0340203215453769
 20
5.107041229918311
 10
0.028368894112397
 20
5.107041229918311
 10
0.0229983660310964
 20
5.107041229918311
 10
0.0179488657803191
 20
5.107041229918311
 10
0.0132605218388804
 20
5.107041229918311
 10
0.0089734626855673
 20
5.107041229918311
 10
0.0051278167992237
 20
5.107041229918311
 10
0.0017637126586365
 20
5.107041229918311
 10
-0.0010787212573504
 20
5.107041229918311
 10
-0.0033593564699785
 20
5.107041229918311
 10
-0.0050380645003472
 20
5.107041229918311
 10
-0.0060747168697262
 20
5.107041229918311
 10
-0.0064291850992433
 20
5.107041229918311
 10
-0.0170921079425099
 20
5.043855029100638
 10
-0.0303727294057623
 20
4.987012750766597
 10
-0.0461154770664436
 20
4.936142813156226
 10
-0.0641647785019686
 20
4.890873634509531
 10
-0.084365061289752
 20
4.850833633066526
 10
-0.1065607530072086
 20
4.81565122706723
 10
-0.1305962812317816
 20
4.784954834751653
 10
-0.1563160735408289
 20
4.758372874359813
 10
-0.1835645575118505
 20
4.735533764131714
 10
-0.2121861607222044
 20
4.716065922307378
 10
-0.2420253107493337
 20
4.699597767126813
 10
-0.2729264351706533
 20
4.685757716830037
 10
-0.3047339615635778
 20
4.674174189657061
 10
-0.337292317505522
 20
4.6644756038479
 10
-0.3704459305739007
 20
4.656290377642565
 10
-0.4040392283461573
 20
4.649246929281074
 10
-0.437916638399706
 20
4.642973677003434
 10
-0.4719225883119337
 20
4.637099039049664
 10
-0.5059015056602833
 20
4.631251433659776
 10
-0.5396978180221696
 20
4.625059279073783
 10
-0.5731559529750358
 20
4.618150993531697
 10
-0.6061203380962397
 20
4.610154995273537
 10
-0.6384354009632533
 20
4.600699702539311
 10
-0.6699455691534908
 20
4.589413533569034
 10
-0.700495270244339
 20
4.575924906602721
 10
-0.729928931813241
 20
4.559862239880382
 10
-0.7580909814376115
 20
4.540853951642037
 10
-0.7848258466948649
 20
4.518528460127693
 10
-0.8099779551624164
 20
4.492514183577365
 10
-0.8333917344177095
 20
4.462439540231067
 10
-0.8549116120381299
 20
4.427932948328818
 10
-0.874382015601121
 20
4.388622826110622
 10
-0.8916473726840692
 20
4.344137591816499
 10
-0.9065521108644174
 20
4.294105663686461
 10
-0.9189406577195812
 20
4.238155459960518
 10
-0.9286574408269745
 20
4.175915398878691
 10
-0.9292253665394339
 20
4.175915398878666
 10
-0.9308862813588163
 20
4.175915398878666
 10
-0.9335758918082531
 20
4.175915398878666
 10
-0.9372299044109055
 20
4.175915398878666
 10
-0.941784025689877
 20
4.175915398878666
 10
-0.9471739621682717
 20
4.175915398878666
 10
-0.9533354203691928
 20
4.175915398878666
 10
-0.96020410681583
 20
4.175915398878666
 10
-0.9677157280312298
 20
4.175915398878666
 10
-0.975805990538582
 20
4.175915398878666
 10
-0.9844106008609328
 20
4.175915398878666
 10
-0.9934652655214437
 20
4.175915398878666
 10
-1.002905691043245
 20
4.175915398878666
 10
-1.012667583949443
 20
4.175915398878666
 10
-1.02268665076314
 20
4.175915398878666
 10
-1.032898598007497
 20
4.175915398878666
 10
-1.04323913220562
 20
4.175915398878666
 10
-1.05364395988058
 20
4.175915398878666
 10
-1.064048787555599
 20
4.175915398878666
 10
-1.074389321753691
 20
4.175915398878666
 10
-1.084601268998049
 20
4.175915398878666
 10
-1.094620335811747
 20
4.175915398878666
 10
-1.104382228717945
 20
4.175915398878666
 10
-1.113822654239747
 20
4.175915398878666
 10
-1.122877318900258
 20
4.175915398878666
 10
-1.131481929222637
 20
4.175915398878666
 10
-1.13957219172996
 20
4.175915398878666
 10
-1.14708381294536
 20
4.175915398878666
 10
-1.153952499391968
 20
4.175915398878666
 10
-1.160113957592918
 20
4.175915398878666
 10
-1.165503894071314
 20
4.175915398878666
 10
-1.170058015350284
 20
4.175915398878666
 10
-1.173712027952936
 20
4.175915398878666
 10
-1.176401638402374
 20
4.175915398878666
 10
-1.178062553221784
 20
4.175915398878666
 10
-1.178630478934215
 20
4.175915398878666
  0
LWPOLYLINE
  5
ED2B
330
A
100
AcDbEntity
  8
0
100
AcDbPolyline
 90
       37
 70
   128
 43
0.0
 10
-1.178630478934215
 20
4.752684442420251
 10
-1.172748981090897
 20
4.758699878902155
 10
-1.155548374190593
 20
4.776292193141691
 10
-1.127694488177886
 20
4.804780392329589
 10
-1.089853152997271
 20
4.843483483656579
 10
-1.042690198593241
 20
4.891720474313383
 10
-0.9868714549103783
 20
4.948810371490734
 10
-0.9230627518931767
 20
5.014072182379361
 10
-0.8519299194861885
 20
5.086824914169983
 10
-0.774138787633909
 20
5.166387574053334
 10
-0.6903551862808897
 20
5.252079169220136
 10
-0.6012449453716542
 20
5.34321870686112
 10
-0.5074738948507262
 20
5.439125194167019
 10
-0.4097078646626571
 20
5.539117638328546
 10
-0.3086126847519139
 20
5.642515046536443
 10
-0.2048541850630769
 20
5.748636425981428
 10
-0.0990981955406696
 20
5.856800783854235
 10
0.0079894538708132
 20
5.966327127345584
 10
0.1157429332268194
 20
6.076534463646206
 10
0.2234964125828256
 20
6.186741799946829
 10
0.3305840619943083
 20
6.296268143438182
 10
0.4363400515167159
 20
6.404432501310987
 10
0.5400985512055812
 20
6.510553880755977
 10
0.6411937311162959
 20
6.613951288963874
 10
0.7389597613043934
 20
6.713943733125409
 10
0.8327308118253212
 20
6.809850220431309
 10
0.921841052734585
 20
6.900989758072304
 10
1.005624654087603
 20
6.986681353239116
 10
1.083415785939884
 20
7.066244013122473
 10
1.154548618346872
 20
7.13899674491311
 10
1.218357321364102
 20
7.204258555801741
 10
1.274176065046965
 20
7.261348452979105
 10
1.321339019450995
 20
7.309585443635922
 10
1.359180354631639
 20
7.348288534962923
 10
1.387034240644375
 20
7.376776734150836
 10
1.404234847544677
 20
7.394369048390389
 10
1.410116345388025
 20
7.40038448487232
  0
LINE
  5
ED2D
330
A
100
AcDbEntity
  8
0
100
AcDbLine
 10
1.974040870910734
 20
7.087897842172782
 30
0.0
 11
6.437788606615788
 21
4.510751885368888
 31
0.0
  0
LINE
  5
ED2E
330
A
100
AcDbEntity
  8
0
100
AcDbLine
 10
0.1498819531355267
 20
5.35612586683204
 30
0.0
 11
4.613629688840581
 21
2.778979910028147
 31
0.0
  0
LINE
  5
ED2F
330
A
100
AcDbEntity
  8
0
100
AcDbLine
 10
0.1481992199311222
 20
5.107041229918311
 30
0.0
 11
4.611946955636176
 21
2.529895273114417
 31
0.0
  0
LINE
  5
ED30
330
A
100
AcDbEntity
  8
0
100
AcDbLine
 10
-0.0064291850992433
 20
5.107041229918311
 30
0.0
 11
4.457318550605783
 21
2.529895273114417
 31
0.0
  0
LINE
  5
ED31
330
A
100
AcDbEntity
  8
0
100
AcDbLine
 10
-0.9286574408269745
 20
4.175915398878691
 30
0.0
 11
3.535090294878052
 21
1.598769442074798
 31
0.0
  0
LINE
  5
ED32
330
A
100
AcDbEntity
  8
0
100
AcDbLine
 10
-1.178630478934215
 20
4.175915398878666
 30
0.0
 11
3.285858938540663
 21
1.598769442074774
 31
0.0
  0
LWPOLYLINE
  5
ED33
330
A
100
AcDbEntity
  8
0
100
AcDbPolyline
 90
      180
 70
   128
 43
0.0
 10
6.437788606615788
 20
4.510751885368888
 10
6.325517726899512
 20
4.493356448825798
 10
6.22356000316305
 20
4.471198901199043
 10
6.131316038275294
 20
4.444544591749549
 10
6.048186435105357
 20
4.413658869738215
 10
5.973571796522241
 20
4.378807084425964
 10
5.906872725394897
 20
4.340254585073703
 10
5.847489824592379
 20
4.298266720942343
 10
5.794823696983691
 20
4.253108841292806
 10
5.748274945437891
 20
4.205046295385993
 10
5.707244172823926
 20
4.154344432482822
 10
5.671131982010855
 20
4.101268601844205
 10
5.639338975867679
 20
4.046084152731056
 10
5.61126575726346
 20
3.989056434404285
 10
5.58631292906714
 20
3.930450796124808
 10
5.563881094147781
 20
3.870532587153535
 10
5.543370855374326
 20
3.809567156751379
 10
5.524182815615893
 20
3.747819854179254
 10
5.505717577741427
 20
3.685556028698068
 10
5.487375744619988
 20
3.623041029568738
 10
5.468557919120577
 20
3.560540206052173
 10
5.448664704112196
 20
3.498318907409291
 10
5.427096702463848
 20
3.436642482900998
 10
5.403254517044537
 20
3.375776281788211
 10
5.376538750723375
 20
3.315985653331841
 10
5.346350006369255
 20
3.257535946792805
 10
5.312088886851235
 20
3.200692511432007
 10
5.273155995038372
 20
3.145720696510364
 10
5.228951933799613
 20
3.092885851288793
 10
5.178877306004075
 20
3.042453325028199
 10
5.122332714520644
 20
2.994688466989499
 10
5.05871876221844
 20
2.949856626433603
 10
4.987436051966405
 20
2.908223152621426
 10
4.907885186633541
 20
2.870053394813881
 10
4.819466769088967
 20
2.835612702271876
 10
4.721581402201628
 20
2.80516642425633
 10
4.613629688840581
 20
2.778979910028147
 10
4.613606056569018
 20
2.77454066304624
 10
4.613583736854173
 20
2.769448654998681
 10
4.613562692194512
 20
2.763748979404498
 10
4.613542885088327
 20
2.757486729782701
 10
4.61352427803397
 20
2.750706999652314
 10
4.613506833529902
 20
2.743454882532356
 10
4.613490514074475
 20
2.73577547194184
 10
4.613475282166041
 20
2.727713861399791
 10
4.613461100303005
 20
2.719315144425225
 10
4.613447930983716
 20
2.710624414537163
 10
4.613435736706641
 20
2.701686765254615
 10
4.613424479970013
 20
2.69254729009661
 10
4.613414123272356
 20
2.683251082582161
 10
4.613404629111903
 20
2.673843236230288
 10
4.613395959987179
 20
2.664368844560008
 10
4.613388078396474
 20
2.654873001090343
 10
4.613380946838198
 20
2.645400799340309
 10
4.613374527810754
 20
2.635997332828926
 10
4.61336878381244
 20
2.626707695075209
 10
4.613363677341715
 20
2.617576979598185
 10
4.613359170896933
 20
2.608650279916864
 10
4.613355226976445
 20
2.599972689550269
 10
4.613351808078653
 20
2.591589302017413
 10
4.613348876701913
 20
2.583545210837324
 10
4.613346395344683
 20
2.57588550952901
 10
4.613344326505262
 20
2.5686552916115
 10
4.613342632681997
 20
2.561899650603804
 10
4.613341276373411
 20
2.555663680024947
 10
4.613340220077738
 20
2.549992473393944
 10
4.613339426293443
 20
2.544931124229814
 10
4.613338857518818
 20
2.540524726051578
 10
4.613338476252329
 20
2.536818372378248
 10
4.613338244992383
 20
2.533857156728851
 10
4.613338126237215
 20
2.531686172622403
 10
4.613338082485347
 20
2.530350513577916
 10
4.613338076235073
 20
2.529895273114417
 10
4.612983608005528
 20
2.529895273114417
 10
4.611946955636176
 20
2.529895273114417
 10
4.61026824760578
 20
2.529895273114417
 10
4.607987612393151
 20
2.529895273114417
 10
4.605145178477164
 20
2.529895273114417
 10
4.601781074336578
 20
2.529895273114417
 10
4.597935428450262
 20
2.529895273114417
 10
4.59364836929692
 20
2.529895273114417
 10
4.588960025355483
 20
2.529895273114417
 10
4.583910525104704
 20
2.529895273114417
 10
4.578539997023405
 20
2.529895273114417
 10
4.572888569590452
 20
2.529895273114417
 10
4.566996371284552
 20
2.529895273114417
 10
4.560903530584631
 20
2.529895273114417
 10
4.554650175969449
 20
2.529895273114417
 10
4.548276435917762
 20
2.529895273114417
 10
4.541822438908504
 20
2.529895273114417
 10
4.535328313420427
 20
2.529895273114417
 10
4.528834187932353
 20
2.529895273114417
 10
4.522380190923093
 20
2.529895273114417
 10
4.516006450871407
 20
2.529895273114417
 10
4.509753096256226
 20
2.529895273114417
 10
4.503660255556304
 20
2.529895273114417
 10
4.497768057250403
 20
2.529895273114417
 10
4.492116629817452
 20
2.529895273114417
 10
4.486746101736152
 20
2.529895273114417
 10
4.481696601485373
 20
2.529895273114417
 10
4.477008257543936
 20
2.529895273114417
 10
4.472721198390593
 20
2.529895273114417
 10
4.468875552504278
 20
2.529895273114417
 10
4.465511448363691
 20
2.529895273114417
 10
4.462669014447705
 20
2.529895273114417
 10
4.460388379235077
 20
2.529895273114417
 10
4.458709671204679
 20
2.529895273114417
 10
4.457673018835328
 20
2.529895273114417
 10
4.457318550605783
 20
2.529895273114417
 10
4.446655627762516
 20
2.466709072296747
 10
4.433375006299264
 20
2.409866793962704
 10
4.417632258638582
 20
2.358996856352332
 10
4.399582957203087
 20
2.313727677705637
 10
4.379382674415275
 20
2.273687676262634
 10
4.357186982697818
 20
2.238505270263337
 10
4.333151454473274
 20
2.20780887794776
 10
4.307431662164198
 20
2.181226917555919
 10
4.280183178193205
 20
2.158387807327821
 10
4.251561574982851
 20
2.138919965503485
 10
4.221722424955693
 20
2.122451810322919
 10
4.190821300534402
 20
2.108611760026144
 10
4.159013774141476
 20
2.097028232853168
 10
4.126455418199533
 20
2.087329647044006
 10
4.093301805131126
 20
2.079144420838671
 10
4.05970850735887
 20
2.072100972477183
 10
4.025831097305321
 20
2.065827720199541
 10
3.991825147393093
 20
2.059953082245771
 10
3.957846230044743
 20
2.054105476855883
 10
3.924049917682886
 20
2.047913322269891
 10
3.89059178273002
 20
2.041005036727804
 10
3.857627397608816
 20
2.033009038469645
 10
3.825312334741774
 20
2.023553745735418
 10
3.793802166551563
 20
2.012267576765141
 10
3.763252465460687
 20
1.998778949798827
 10
3.733818803891813
 20
1.982716283076491
 10
3.705656754267443
 20
1.963707994838144
 10
3.678921889010189
 20
1.941382503323799
 10
3.653769780542609
 20
1.915368226773471
 10
3.630356001287316
 20
1.885293583427175
 10
3.608836123666924
 20
1.850786991524926
 10
3.589365720103933
 20
1.811476869306729
 10
3.572100363020958
 20
1.766991635012606
 10
3.557195624840608
 20
1.716959706882567
 10
3.544807077985446
 20
1.661009503156625
 10
3.535090294878052
 20
1.598769442074798
 10
3.53452236916562
 20
1.598769442074774
 10
3.532861454346209
 20
1.598769442074774
 10
3.530171843896801
 20
1.598769442074774
 10
3.526517831294121
 20
1.598769442074774
 10
3.521963710015178
 20
1.598769442074774
 10
3.516573773536754
 20
1.598769442074774
 10
3.510412315335833
 20
1.598769442074774
 10
3.503543628889225
 20
1.598769442074774
 10
3.496032007673797
 20
1.598769442074774
 10
3.487941745166473
 20
1.598769442074774
 10
3.479337134844093
 20
1.598769442074774
 10
3.470282470183612
 20
1.598769442074774
 10
3.460842044661808
 20
1.598769442074774
 10
3.451080151755583
 20
1.598769442074774
 10
3.441061084941885
 20
1.598769442074774
 10
3.430849137697555
 20
1.598769442074774
 10
3.420508603499435
 20
1.598769442074774
 10
3.410103775824445
 20
1.598769442074774
 10
3.399698948149455
 20
1.598769442074774
 10
3.389358413951335
 20
1.598769442074774
 10
3.379146466707005
 20
1.598769442074774
 10
3.369127399893308
 20
1.598769442074774
 10
3.359365506987081
 20
1.598769442074774
 10
3.349925081465278
 20
1.598769442074774
 10
3.340870416804797
 20
1.598769442074774
 10
3.332265806482418
 20
1.598769442074774
 10
3.324175543975094
 20
1.598769442074774
 10
3.316663922759665
 20
1.598769442074774
 10
3.309795236313056
 20
1.598769442074774
 10
3.303633778112106
 20
1.598769442074774
 10
3.298243841633712
 20
1.598769442074774
 10
3.293689720354769
 20
1.598769442074774
 10
3.290035707752088
 20
1.598769442074774
 10
3.287346097302652
 20
1.598769442074774
 10
3.285858938540663
 20
1.598769442074774
  0
LINE
  5
ED34
330
A
100
AcDbEntity
  8
0
100
AcDbLine
 10
6.436044191398544
 20
4.512232204130468
 30
0.0
 11
6.436044191398544
 21
4.824718846830007
 31
0.0
  0
LINE
  5
ED35
330
A
100
AcDbEntity
  8
0
100
AcDbLine
 10
1.974040870910734
 20
7.087897842172782
 30
0.0
 11
1.974040870910734
 21
7.40038448487232
 31
0.0
  0
LINE
  5
ED36
330
A
100
AcDbEntity
  8
0
100
AcDbLine
 10
-1.178630478934215
 20
1.906642087453724
 30
0.0
 11
3.28511725677081
 21
-0.670503869350168
 31
0.0
  0
LINE
  5
ED37
330
A
100
AcDbEntity
  8
0
100
AcDbLine
 10
-3.053630478934216
 20
1.906642087453724
 30
0.0
 11
1.41011725677081
 21
-0.670503869350168
 31
0.0
  0
LINE
  5
ED38
330
A
100
AcDbEntity
  8
0
100
AcDbLine
 10
-4.112075729871455
 20
0.8544292082479277
 30
0.0
 11
0.3516720058335707
 21
-1.722716748555964
 31
0.0
  0
LINE
  5
ED39
330
A
100
AcDbEntity
  8
0
100
AcDbLine
 10
-4.112226339579513
 20
0.7294629957407102
 30
0.0
 11
0.3515213961254986
 21
-1.847682961063181
 31
0.0
  0
LINE
  5
ED3A
330
A
100
AcDbEntity
  8
0
100
AcDbLine
 10
-4.244356520628861
 20
0.7294292028555303
 30
0.0
 11
0.219391215076179
 21
-1.847716753948361
 31
0.0
  0
LINE
  5
ED3B
330
A
100
AcDbEntity
  8
0
100
AcDbLine
 10
-4.950553741792766
 20
-0.0813963329221652
 30
0.0
 11
-0.4868060060877255
 21
-2.658542289726056
 31
0.0
  0
LINE
  5
ED3C
330
A
100
AcDbEntity
  8
0
100
AcDbLine
 10
-5.299590076339248
 20
-0.0813963329221652
 30
0.0
 11
-0.8358423406342224
 21
-2.658542289726056
 31
0.0
  0
LINE
  5
ED3D
330
A
100
AcDbEntity
  8
0
100
AcDbLine
 10
3.285858938540633
 20
-0.6703815039754712
 30
0.0
 11
1.410858938540633
 21
-0.6703815039754712
 31
0.0
  0
LWPOLYLINE
  5
ED3E
330
A
100
AcDbEntity
  8
0
100
AcDbPolyline
 90
      181
 70
   128
 43
0.0
 10
-0.8351006588643983
 20
-2.658419924351361
 10
-0.8343067646631181
 20
-2.658419924351361
 10
-0.8319849986027847
 20
-2.658419924351361
 10
-0.8282252354986423
 20
-2.658419924351361
 10
-0.8231173501659368
 20
-2.658419924351361
 10
-0.8167512174198845
 20
-2.658419924351361
 10
-0.8092167120757308
 20
-2.658419924351361
 10
-0.8006037089487206
 20
-2.658419924351361
 10
-0.791002082854071
 20
-2.658419924351361
 10
-0.7805017086070265
 20
-2.658419924351361
 10
-0.7691924610228611
 20
-2.658419924351361
 10
-0.7571642149167916
 20
-2.658419924351361
 10
-0.7445068451040342
 20
-2.658419924351361
 10
-0.7313102263998629
 20
-2.658419924351361
 10
-0.7176642336194945
 20
-2.658419924351361
 10
-0.7036587415781455
 20
-2.658419924351361
 10
-0.689383625091118
 20
-2.658419924351361
 10
-0.6749287589736
 20
-2.658419924351361
 10
-0.6603840180408369
 20
-2.658419924351361
 10
-0.6458392771080739
 20
-2.658419924351361
 10
-0.6313844109905844
 20
-2.658419924351361
 10
-0.6171092945035284
 20
-2.658419924351361
 10
-0.6031038024622079
 20
-2.658419924351361
 10
-0.5894578096818393
 20
-2.658419924351361
 10
-0.5762611909776397
 20
-2.658419924351361
 10
-0.5636038211649109
 20
-2.658419924351361
 10
-0.5515755750588128
 20
-2.658419924351361
 10
-0.5402663274746474
 20
-2.658419924351361
 10
-0.5297659532276314
 20
-2.658419924351361
 10
-0.5201643271329816
 20
-2.658419924351361
 10
-0.5115513240059713
 20
-2.658419924351361
 10
-0.5040168186618175
 20
-2.658419924351361
 10
-0.4976506859157654
 20
-2.658419924351361
 10
-0.4925428005830314
 20
-2.658419924351361
 10
-0.4887830374788892
 20
-2.658419924351361
 10
-0.4864612714185556
 20
-2.658419924351361
 10
-0.4856673772172755
 20
-2.658419924351361
 10
-0.4822045509313499
 20
-2.613085303195576
 10
-0.4760747637215205
 20
-2.571926214569812
 10
-0.4674319859062949
 20
-2.534689246066372
 10
-0.4564301878040383
 20
-2.50112098527755
 10
-0.4432233397332867
 20
-2.470968019795633
 10
-0.427965412012405
 20
-2.443976937212908
 10
-0.4108103749598442
 20
-2.419894325121665
 10
-0.3919121988941114
 20
-2.3984667711142
 10
-0.3714248541335721
 20
-2.379440862782791
 10
-0.349502310996705
 20
-2.362563187719739
 10
-0.3262985398019893
 20
-2.347580333517326
 10
-0.3019675108678186
 20
-2.334238887767845
 10
-0.2766631945126434
 20
-2.32228543806358
 10
-0.2505395610549428
 20
-2.31146657199683
 10
-0.2237505808131104
 20
-2.301528877159872
 10
-0.1964502241056252
 20
-2.292218941145008
 10
-0.1687924612509377
 20
-2.283283351544521
 10
-0.1409312625674417
 20
-2.274468695950701
 10
-0.1130205983736445
 20
-2.265521561955834
 10
-0.0852144389879399
 20
-2.256188537152215
 10
-0.0576667547287784
 20
-2.24621620913213
 10
-0.0305315159146389
 20
-2.235351165487871
 10
-0.0039626928639436
 20
-2.223339993811725
 10
0.0218857441048854
 20
-2.209929281695986
 10
0.0468598246733691
 20
-2.194865616732939
 10
0.070805578523057
 20
-2.17789558651487
 10
0.0935690353355554
 20
-2.158765778634075
 10
0.1149962247923852
 20
-2.137222780682843
 10
0.1349331765750961
 20
-2.113013180253458
 10
0.1532259203652657
 20
-2.085883564938217
 10
0.1697204858444437
 20
-2.055580522329406
 10
0.1842629026941793
 20
-2.021850640019307
 10
0.1966992005960222
 20
-1.984440505600225
 10
0.2068754092315785
 20
-1.943096706664433
 10
0.2146375582823126
 20
-1.89756583080423
 10
0.2198316774298589
 20
-1.847594465611903
 10
0.2201328968459748
 20
-1.847594388573667
 10
0.2210138215535053
 20
-1.847594163273226
 10
0.2224403512411541
 20
-1.847593798431879
 10
0.2243783855976815
 20
-1.847593302770915
 10
0.2267938243118479
 20
-1.847592685011654
 10
0.2296525670723568
 20
-1.847591953875399
 10
0.2329205135679686
 20
-1.847591118083456
 10
0.2365635634874152
 20
-1.847590186357133
 10
0.2405476165194855
 20
-1.847589167417739
 10
0.2448385723528545
 20
-1.847588069986576
 10
0.2494023306763111
 20
-1.847586902784963
 10
0.2542047911785588
 20
-1.847585674534192
 10
0.2592118535483578
 20
-1.847584393955583
 10
0.2643894174744688
 20
-1.847583069770435
 10
0.269703382645595
 20
-1.84758171070006
 10
0.2751196487505254
 20
-1.847580325465762
 10
0.2806041154779351
 20
-1.847578922788851
 10
0.2861226825166128
 20
-1.84757751139063
 10
0.2916412495553189
 20
-1.847576099992408
 10
0.297125716282757
 20
-1.8475746973155
 10
0.3025419823876589
 20
-1.8475733120812
 10
0.3078559475587852
 20
-1.847571953010823
 10
0.3130335114848961
 20
-1.847570628825676
 10
0.3180405738546952
 20
-1.847569348247064
 10
0.3228430343569713
 20
-1.847568119996297
 10
0.3274067926803994
 20
-1.847566952794678
 10
0.3316977485137684
 20
-1.847565855363521
 10
0.3356818015458103
 20
-1.847564836424125
 10
0.3393248514652853
 20
-1.847563904697805
 10
0.3425927979609256
 20
-1.847563068905861
 10
0.3454515407214345
 20
-1.847562337769604
 10
0.3478669794355724
 20
-1.847561720010341
 10
0.3498050137920998
 20
-1.847561224349383
 10
0.351231543479777
 20
-1.84756085950803
 10
0.3521124681872791
 20
-1.847560634207594
 10
0.352413687603395
 20
-1.847560557169379
 10
0.352413687603395
 20
-1.847276640536093
 10
0.352413687603395
 20
-1.846446318306659
 10
0.352413687603395
 20
-1.845101731986743
 10
0.352413687603395
 20
-1.843275023081999
 10
0.352413687603395
 20
-1.840998333098076
 10
0.352413687603395
 20
-1.838303803540631
 10
0.352413687603395
 20
-1.835223575915326
 10
0.352413687603395
 20
-1.83178979172781
 10
0.352413687603395
 20
-1.828034592483741
 10
0.352413687603395
 20
-1.823990119688772
 10
0.352413687603395
 20
-1.819688514848563
 10
0.352413687603395
 20
-1.815161919468763
 10
0.352413687603395
 20
-1.810442475055032
 10
0.352413687603395
 20
-1.80556232311302
 10
0.352413687603395
 20
-1.800553605148393
 10
0.352413687603395
 20
-1.795448462666795
 10
0.352413687603395
 20
-1.79027903717389
 10
0.352413687603395
 20
-1.78507747017533
 10
0.352413687603395
 20
-1.779875903176764
 10
0.352413687603395
 20
-1.774706477683859
 10
0.352413687603395
 20
-1.769601335202265
 10
0.352413687603395
 20
-1.764592617237634
 10
0.352413687603395
 20
-1.759712465295626
 10
0.352413687603395
 20
-1.754993020881893
 10
0.352413687603395
 20
-1.750466425502095
 10
0.352413687603395
 20
-1.746164820661884
 10
0.352413687603395
 20
-1.742120347866914
 10
0.352413687603395
 20
-1.738365148622845
 10
0.352413687603395
 20
-1.734931364435328
 10
0.352413687603395
 20
-1.73185113681002
 10
0.352413687603395
 20
-1.729156607252579
 10
0.352413687603395
 20
-1.726879917268655
 10
0.352413687603395
 20
-1.725053208363909
 10
0.352413687603395
 20
-1.723708622043991
 10
0.352413687603395
 20
-1.722878299814559
 10
0.352413687603395
 20
-1.722594383181269
 10
0.3546489781233291
 20
-1.722696859267965
 10
0.3611927252331455
 20
-1.722899788243436
 10
0.3718017422578512
 20
-1.723046421180753
 10
0.3862328425224533
 20
-1.722980009152996
 10
0.4042428393519871
 20
-1.722543803233228
 10
0.4255885460714596
 20
-1.721581054494533
 10
0.4500267760058493
 20
-1.719935014009979
 10
0.47731434248022
 20
-1.717448932852643
 10
0.5072080588195789
 20
-1.713966062095595
 10
0.5394647383489044
 20
-1.709329652811911
 10
0.5738411943932321
 20
-1.70338295607466
 10
0.6100942402775687
 20
-1.695969222956924
 10
0.6479806893269499
 20
-1.68693170453177
 10
0.6872573548663539
 20
-1.676113651872273
 10
0.7276810502208165
 20
-1.663358316051505
 10
0.7690085887153444
 20
-1.648508948142548
 10
0.8109967836749445
 20
-1.63140879921846
 10
0.8534024484246527
 20
-1.611901120352331
 10
0.8959823962894757
 20
-1.589829162617223
 10
0.9384934405943925
 20
-1.565036177086216
 10
0.9806923946644657
 20
-1.537365414832378
 10
1.022336071824702
 20
-1.506660126928792
 10
1.063181285400055
 20
-1.472763564448519
 10
1.102984848715613
 20
-1.43551897846464
 10
1.141503575096329
 20
-1.394769620050231
 10
1.178494277867264
 20
-1.350358740278362
 10
1.213713770353429
 20
-1.302129590222103
 10
1.246918865879797
 20
-1.249925420954532
 10
1.277866377771409
 20
-1.193589483548728
 10
1.306313119353297
 20
-1.132965029077752
 10
1.33201590395044
 20
-1.067895308614687
 10
1.354731544887846
 20
-0.9982235732326012
 10
1.37421685549058
 20
-0.9237930740045719
 10
1.390228649083589
 20
-0.8444470620036748
 10
1.402523738991937
 20
-0.760028788302976
 10
1.410858938540633
 20
-0.6703815039754712
  0
LINE
  5
ED3F
330
A
100
AcDbEntity
  8
0
100
AcDbLine
 10
3.285858938540633
 20
-0.6703815039754712
 30
0.0
 11
3.285858938540663
 21
1.598769442074774
 31
0.0
  0
MTEXT
  5
F382
102
{ACAD_XDICTIONARY
360
F383
102
}
330
A
100
AcDbEntity
  8
0
100
AcDbMText
 10
-3.031329643689922
 20
-3.248870880804201
 30
0.0
 40
0.16
 41
10.41312882983856
 46
0.0
 71
     1
 72
     5
  1
Kuiken Brothers Moulding - Colonial Revival Crown Boxed Cornice Crown Combination
  7
DynamicDimensions
 73
     1
 44
1.0
1001
ACAD
1000
ACAD_MTEXT_COLUMN_INFO_BEGIN
1070
    75
1070
     2
1070
    79
1070
     0
1070
    76
1070
     1
1070
    78
1070
     0
1070
    48
1040
10.41312882983856
1070
    49
1040
2.451960562412419
1070
    50
1070
     1
1040
0.0
1000
ACAD_MTEXT_COLUMN_INFO_END
  0
MTEXT
  5
F384
102
{ACAD_XDICTIONARY
360
F385
102
}
330
A
100
AcDbEntity
  8
0
100
AcDbMText
 10
-3.031329643689924
 20
-3.545030460575583
 30
0.0
 40
0.122598028120621
 41
8.594876990429773
 46
0.0
 71
     1
 72
     5
  3
\pi4.29744;\P\pi0.04937;CONFIDENTIAL: All material found on this document is the exclusive property of Kuiken Brothers Company, Inc. \P\pi0.4218;This may not be duplicated or replicated in any shape or form without the expressed written consent of \P
  1
\pi0.47077;Kuiken Brothers Company, Inc. It may be used within architectural renders and details and printed for \P\pi1.22024;jobsite reference. These profiles are in-stock and ready to be shipped nationwide. 
  7
DynamicDimensions
 73
     1
 44
1.0
1001
ACAD
1000
ACAD_MTEXT_COLUMN_INFO_BEGIN
1070
    75
1070
     2
1070
    79
1070
     0
1070
    76
1070
     1
1070
    78
1070
     0
1070
    48
1040
8.594876990429773
1070
    49
1040
2.451960562412419
1070
    50
1070
     1
1040
1.154701709604475
1000
ACAD_MTEXT_COLUMN_INFO_END
  0
MTEXT
  5
F386
102
{ACAD_XDICTIONARY
360
F387
102
}
330
A
100
AcDbEntity
  8
0
100
AcDbMText
 10
-3.031329643689924
 20
-4.764042165915253
 30
0.0
 40
0.122598028120621
 41
8.62496279394246
 46
0.0
 71
     1
 72
     5
  1
\pi2.16148;{\H1.3333x;www.kuikenbrothers.com      201.796.2082}
  7
DynamicDimensions
 73
     1
 44
1.0
1001
ACAD
1000
ACAD_MTEXT_COLUMN_INFO_BEGIN
1070
    75
1070
     2
1070
    79
1070
     0
1070
    76
1070
     1
1070
    78
1070
     0
1070
    48
1040
8.62496279394246
1070
    49
1040
2.451960562412419
1070
    50
1070
     1
1040
0.1669164710007885
1000
ACAD_MTEXT_COLUMN_INFO_END
  0
OLE2FRAME
  5
F388
330
A
100
AcDbEntity
  8
elev-6
 62
   255
100
AcDbOle2Frame
 70
     2
  1
OLE
1001
ACAD
1000
OLEBEGIN
1070
    70
1070
     1
1070
    71
1070
     1
1070
    40
1040
0.0
1070
    41
1040
21.92327022322229
1070
    42
1040
15.44195144055709
1070
    72
1070
     0
1070
     3
1000

1070
    90
1071
        0
1070
    43
1040
0.0
1070
     4
1000

1070
    91
1071
        0
1070
    44
1040
0.0
1000
OLEEND
  0
MTEXT
  5
F4FB
102
{ACAD_XDICTIONARY
360
F4FC
102
}
330
A
100
AcDbEntity
  8
0
  6
Continuous
370
     0
100
AcDbMText
 10
0.0253981755816852
 20
6.649860834633308
 30
0.0
 40
0.12
 41
0.8672688411090273
 46
0.3650191262766427
 71
     2
 72
     5
  1
{\fArial|b0|i0|c0|p34;KB317}
 73
     1
 44
1.0
1001
ACAD
1000
ACAD_MTEXT_DEFINED_HEIGHT_BEGIN
1070
    46
1040
0.3807328726935779
1000
ACAD_MTEXT_DEFINED_HEIGHT_END
  0
MTEXT
  5
F5B0
102
{ACAD_XDICTIONARY
360
F5B1
102
}
330
A
100
AcDbEntity
  8
0
  6
Continuous
370
     0
100
AcDbMText
 10
-2.414505762976174
 20
5.079416628219135
 30
0.0
 40
0.12
 41
0.8672688411090273
 46
0.3650191262766427
 71
     2
 72
     5
  1
{\fArial|b0|i0|c0|p34;1" x 6"}
 73
     1
 44
1.0
1001
ACAD
1000
ACAD_MTEXT_DEFINED_HEIGHT_BEGIN
1070
    46
1040
0.3807328726935779
1000
ACAD_MTEXT_DEFINED_HEIGHT_END
  0
MTEXT
  5
F5BA
102
{ACAD_XDICTIONARY
360
F5BB
102
}
330
A
100
AcDbEntity
  8
0
  6
Continuous
370
     0
100
AcDbMText
 10
-3.06375960238374
 20
2.88497867851241
 30
0.0
 40
0.12
 41
1.234845813351753
 46
0.3651565923574438
 71
     2
 72
     5
  1
{\fArial|b0|i0|c0|p34;1"X RIPPED}
 73
     1
 44
1.0
1001
ACAD
1000
ACAD_MTEXT_DEFINED_HEIGHT_BEGIN
1070
    46
1040
0.3807328726935779
1000
ACAD_MTEXT_DEFINED_HEIGHT_END
  0
MTEXT
  5
F68A
102
{ACAD_XDICTIONARY
360
F68B
102
}
330
A
100
AcDbEntity
  8
0
  6
Continuous
370
     0
100
AcDbMText
 10
-4.700516703091977
 20
1.387164231906986
 30
0.0
 40
0.12
 41
0.8672688411090273
 46
0.3650191262766427
 71
     2
 72
     5
  1
{\fArial|b0|i0|c0|p34;KB324}
 73
     1
 44
1.0
1001
ACAD
1000
ACAD_MTEXT_DEFINED_HEIGHT_BEGIN
1070
    46
1040
0.3807328726935779
1000
ACAD_MTEXT_DEFINED_HEIGHT_END
  0
VIEWPORT
  5
BA
330
B
100
AcDbEntity
 67
     1
  8
0
  6
Continuous
370
     0
100
AcDbViewport
 10
4.097178729083339
 20
5.967347684511838
 30
0.0
 40
19.05376149093321
 41
9.892584040185232
 68
     1
 69
     1
 12
4.097178729083339
 22
5.967347684511838
 13
0.0
 23
0.0
 14
0.5
 24
0.5
 15
0.5
 25
0.5
 16
0.0
 26
0.0
 36
1.0
 17
0.0
 27
0.0
 37
0.0
 42
50.0
 43
0.0
 44
0.0
 45
9.892584040185232
 50
0.0
 51
0.0
 72
   100
 90
    32800
  1

281
     0
 71
     1
 74
     0
110
0.0
120
0.0
130
0.0
111
1.0
121
0.0
131
0.0
112
0.0
122
1.0
132
0.0
 79
     0
146
0.0
170
     0
 61
     5
348
5FBF
292
     1
282
     1
141
0.0
142
0.0
 63
   250
421
  3355443
  0
VIEWPORT
  5
C4
330
B
100
AcDbEntity
 67
     1
  8
0
  6
Continuous
370
     0
100
AcDbViewport
 10
1.555533586324371
 20
5.953040572337792
 30
0.0
 40
8.180296628454527
 41
10.67408108718479
 68
     2
 69
     2
 12
-0.0818758828655639
 22
2.207186704441248
 13
0.0
 23
0.0
 14
1.0
 24
1.0
 15
0.0
 25
0.0
 16
0.0
 26
0.0
 36
15.94862865570031
 17
0.0000000386726986
 27
-0.1390487434003824
 37
0.0
 42
50.0
 43
0.0
 44
0.0
 45
19.46037681361742
 50
0.0
 51
0.0
 72
   100
 90
    32800
  1

281
     0
 71
     1
 74
     0
110
0.0
120
0.0
130
0.0
111
1.0
121
0.0
131
0.0
112
0.0
122
1.0
132
0.0
 79
     0
146
0.0
170
     0
 61
     5
348
5FBF
292
     1
282
     1
141
0.0
142
0.0
 63
   250
421
  3355443
  0
ENDSEC
  0
SECTION
  2
OBJECTS
  0
DICTIONARY
  5
19
330
0
100
AcDbDictionary
281
     1
  3
ACAD_CIP_PREVIOUS_PRODUCT_INFO
350
6667
  3
ACAD_COLOR
350
61
  3
ACAD_DETAILVIEWSTYLE
350
6661
  3
ACAD_GROUP
350
1A
  3
ACAD_IMAGE_DICT
350
6270
  3
ACAD_IMAGE_VARS
350
6272
  3
ACAD_LAYOUT
350
1E
  3
ACAD_MATERIAL
350
60
  3
ACAD_MLEADERSTYLE
350
5FEC
  3
ACAD_MLINESTYLE
350
1B
  3
ACAD_PLOTSETTINGS
350
22
  3
ACAD_PLOTSTYLENAME
350
1F
  3
ACAD_SCALELIST
350
5FCA
  3
ACAD_SECTIONVIEWSTYLE
350
665F
  3
ACAD_TABLESTYLE
350
62
  3
ACAD_VISUALSTYLE
350
5FB9
  3
ACAD_WIPEOUT_VARS
350
23
  3
ACDB_RECOMPOSE_DATA
350
F6DC
  3
AcDbVariableDictionary
350
F3D7
  3
AcDsDecomposeData
350
F6E2
  3
AEC_PROPERTY_SET_DEFS
350
6217
  0
DICTIONARY
  5
6038
330
7
100
AcDbDictionary
280
     1
281
     1
  0
DICTIONARY
  5
9B
330
2
100
AcDbDictionary
280
     1
281
     1
  3
ACAD_LAYERSTATES
360
9C
  0
DICTIONARY
  5
602E
330
14
100
AcDbDictionary
280
     1
281
     1
  3
ADSK_XREC_LAYER_RECONCILED
360
602F
  0
DICTIONARY
  5
6030
330
24
100
AcDbDictionary
280
     1
281
     1
  3
ADSK_XREC_LAYER_RECONCILED
360
6031
  0
DICTIONARY
  5
6032
330
1BE
100
AcDbDictionary
280
     1
281
     1
  3
ADSK_XREC_LAYER_RECONCILED
360
6033
  0
DICTIONARY
  5
F29A
330
F299
100
AcDbDictionary
280
     1
281
     1
  0
DICTIONARY
  5
34BB
330
A
100
AcDbDictionary
280
     1
281
     1
  3
ACAD_SORTENTS
360
34BC
  0
DICTIONARY
  5
EC5A
330
EC59
100
AcDbDictionary
280
     1
281
     1
  3
ACAD_SORTENTS
360
EC5B
  0
DICTIONARY
  5
F290
330
F28F
100
AcDbDictionary
280
     1
281
     1
  0
DICTIONARY
  5
F383
330
F382
100
AcDbDictionary
280
     1
281
     1
  0
DICTIONARY
  5
F385
330
F384
100
AcDbDictionary
280
     1
281
     1
  3
ACAD_MTEXT_2008_RT
360
F6D6
  0
DICTIONARY
  5
F387
330
F386
100
AcDbDictionary
280
     1
281
     1
  3
ACAD_MTEXT_2008_RT
360
F6D7
  0
DICTIONARY
  5
F4FC
330
F4FB
100
AcDbDictionary
280
     1
281
     1
  3
ACAD_MTEXT_2008_RT
360
F6D8
  0
DICTIONARY
  5
F5B1
330
F5B0
100
AcDbDictionary
280
     1
281
     1
  3
ACAD_MTEXT_2008_RT
360
F6D9
  0
DICTIONARY
  5
F5BB
330
F5BA
100
AcDbDictionary
280
     1
281
     1
  3
ACAD_MTEXT_2008_RT
360
F6DA
  0
DICTIONARY
  5
F68B
330
F68A
100
AcDbDictionary
280
     1
281
     1
  3
ACAD_MTEXT_2008_RT
360
F6DB
  0
XRECORD
  5
6667
102
{ACAD_REACTORS
330
19
102
}
330
19
100
AcDbXrecord
280
     1
300
ACDLT
300
2021
300

  0
DICTIONARY
  5
61
102
{ACAD_REACTORS
330
19
102
}
330
19
100
AcDbDictionary
281
     1
  0
DICTIONARY
  5
6661
102
{ACAD_REACTORS
330
19
102
}
330
19
100
AcDbDictionary
281
     1
  3
Imperial24
350
6662
  0
DICTIONARY
  5
1A
102
{ACAD_REACTORS
330
19
102
}
330
19
100
AcDbDictionary
281
     1
  0
DICTIONARY
  5
6270
102
{ACAD_REACTORS
330
19
102
}
330
19
100
AcDbDictionary
281
     1
  0
RASTERVARIABLES
  5
6272
102
{ACAD_REACTORS
330
19
102
}
330
19
100
AcDbRasterVariables
 90
        0
 70
     1
 71
     1
 72
     0
  0
DICTIONARY
  5
1E
102
{ACAD_REACTORS
330
19
102
}
330
19
100
AcDbDictionary
281
     1
  3
Layout1
350
21
  3
Model
350
20
  0
DICTIONARY
  5
60
102
{ACAD_REACTORS
330
19
102
}
330
19
100
AcDbDictionary
281
     1
  3
ByBlock
350
5FA9
  3
ByLayer
350
5FA1
  3
Global
350
5FB1
  0
DICTIONARY
  5
5FEC
102
{ACAD_REACTORS
330
19
102
}
330
19
100
AcDbDictionary
281
     1
  3
Standard
350
5FED
  0
DICTIONARY
  5
1B
102
{ACAD_REACTORS
330
19
102
}
330
19
100
AcDbDictionary
281
     1
  3
Standard
350
1C
  0
DICTIONARY
  5
22
102
{ACAD_REACTORS
330
19
102
}
330
19
100
AcDbDictionary
281
     1
  0
ACDBDICTIONARYWDFLT
  5
1F
102
{ACAD_REACTORS
330
19
102
}
330
19
100
AcDbDictionary
281
     1
  3
Normal
350
1D
100
AcDbDictionaryWithDefault
340
1D
  0
DICTIONARY
  5
5FCA
102
{ACAD_REACTORS
330
19
102
}
330
19
100
AcDbDictionary
281
     1
  3
A0
350
5FCB
  3
A1
350
5FCC
  3
A2
350
5FCD
  3
A3
350
5FCE
  3
A4
350
5FCF
  3
A5
350
5FD0
  3
A6
350
5FD1
  3
A7
350
5FD2
  3
A8
350
5FD3
  3
A9
350
5FD4
  3
B0
350
5FD5
  3
B1
350
5FD6
  3
B2
350
5FD7
  3
B3
350
5FD8
  3
B4
350
5FD9
  3
B5
350
5FDA
  3
B6
350
5FDB
  3
B7
350
5FDC
  3
B8
350
5FDD
  3
B9
350
5FDE
  3
C0
350
5FDF
  3
C1
350
5FE0
  3
C2
350
5FE1
  3
C3
350
5FE2
  3
C4
350
5FE3
  3
C5
350
5FE4
  3
C6
350
5FE5
  3
C7
350
5FE6
  3
C8
350
5FE7
  3
C9
350
5FE8
  3
D0
350
5FE9
  3
D1
350
5FEA
  3
D2
350
5FEB
  0
DICTIONARY
  5
665F
102
{ACAD_REACTORS
330
19
102
}
330
19
100
AcDbDictionary
281
     1
  3
Imperial24
350
6660
  0
DICTIONARY
  5
62
102
{ACAD_REACTORS
330
19
102
}
330
19
100
AcDbDictionary
281
     1
  3
Standard
350
63
  0
DICTIONARY
  5
5FB9
102
{ACAD_REACTORS
330
19
102
}
330
19
100
AcDbDictionary
281
     1
  3
2dWireframe
350
5FBF
  3
3D Hidden
350
5FC1
  3
3dWireframe
350
5FC0
  3
Basic
350
5FBE
  3
Brighten
350
5FC5
  3
ColorChange
350
5FC9
  3
Conceptual
350
5FC2
  3
Dim
350
5FC4
  3
EdgeColorOff
350
665E
  3
Facepattern
350
5FC8
  3
Flat
350
5FBA
  3
FlatWithEdges
350
5FBB
  3
Gouraud
350
5FBC
  3
GouraudWithEdges
350
5FBD
  3
Hidden
350
6656
  3
JitterOff
350
665C
  3
Linepattern
350
5FC7
  3
OverhangOff
350
665D
  3
Realistic
350
5FC3
  3
Shaded
350
665B
  3
Shaded with edges
350
665A
  3
Shades of Gray
350
6657
  3
Sketchy
350
6658
  3
Thicken
350
5FC6
  3
Wireframe
350
6655
  3
X-Ray
350
6659
  0
WIPEOUTVARIABLES
  5
23
102
{ACAD_REACTORS
330
19
102
}
330
19
100
AcDbWipeoutVariables
 70
     1
  0
XRECORD
  5
F6DC
102
{ACAD_REACTORS
330
19
102
}
330
19
100
AcDbXrecord
280
     1
 90
        1
330
63
330
F382
330
F384
330
F386
330
F4FB
330
F5B0
330
F5BA
330
F68A
  0
DICTIONARY
  5
F3D7
102
{ACAD_REACTORS
330
19
102
}
330
19
100
AcDbDictionary
281
     1
  3
CANNOSCALE
350
F3DC
  3
CMLEADERSTYLE
350
F3D9
  3
CTABLESTYLE
350
F3D8
  3
CVIEWDETAILSTYLE
350
F3DA
  3
CVIEWSECTIONSTYLE
350
F3DB
  3
LAYEREVAL
350
F3ED
  3
LAYERNOTIFY
350
F3EE
  3
LIGHTINGUNITS
350
F3EC
  3
MSLTSCALE
350
F3EB
  0
DICTIONARY
  5
F6E2
102
{ACAD_REACTORS
330
19
102
}
330
19
100
AcDbDictionary
281
     1
  3
AcDsRecords
350
F6E4
  3
AcDsSchemas
350
F6E3
1001
ACAD
1070
     2
  0
DICTIONARY
  5
6217
102
{ACAD_REACTORS
330
19
102
}
330
19
100
AcDbDictionary
281
     1
  0
DICTIONARY
  5
9C
102
{ACAD_REACTORS
330
9B
102
}
330
9B
100
AcDbDictionary
281
     1
  0
XRECORD
  5
602F
102
{ACAD_REACTORS
330
602E
102
}
330
602E
100
AcDbXrecord
280
     1
290
     1
  0
XRECORD
  5
6031
102
{ACAD_REACTORS
330
6030
102
}
330
6030
100
AcDbXrecord
280
     1
290
     1
  0
XRECORD
  5
6033
102
{ACAD_REACTORS
330
6032
102
}
330
6032
100
AcDbXrecord
280
     1
290
     1
  0
SORTENTSTABLE
  5
34BC
102
{ACAD_REACTORS
330
34BB
102
}
330
34BB
100
AcDbSortentsTable
330
A
  0
SORTENTSTABLE
  5
EC5B
102
{ACAD_REACTORS
330
EC5A
102
}
330
EC5A
100
AcDbSortentsTable
330
EC59
  0
XRECORD
  5
F6D6
102
{ACAD_REACTORS
330
F385
102
}
330
F385
100
AcDbXrecord
280
     1
 40
9598630.0
  1
\pxqd;\PCONFIDENTIAL: All material found on this document is the exclusive property of Kuiken Brothers Company, Inc. This may not be duplicated or replicated in any shape or form without the expressed written consent of \PKuiken Brothers Company, Inc
  1
. It may be used within architectural renders and details and printed for \Pjobsite reference. These profiles are in-stock and ready to be shipped nationwide. 
  0
XRECORD
  5
F6D7
102
{ACAD_REACTORS
330
F387
102
}
330
F387
100
AcDbXrecord
280
     1
 40
144327.0
  1
\pxi0.11111,qd;{\H1.3333x;www.kuikenbrothers.com      201.796.2082}
  0
XRECORD
  5
F6D8
102
{ACAD_REACTORS
330
F4FC
102
}
330
F4FC
100
AcDbXrecord
280
     1
 40
32638.0
  1
\pxqc;{\fArial|b0|i0|c0|p34;KB317}
  0
XRECORD
  5
F6D9
102
{ACAD_REACTORS
330
F5B1
102
}
330
F5B1
100
AcDbXrecord
280
     1
 40
34770.0
  1
\pxqc;{\fArial|b0|i0|c0|p34;1" x 6"}
  0
XRECORD
  5
F6DA
102
{ACAD_REACTORS
330
F5BB
102
}
330
F5BB
100
AcDbXrecord
280
     1
 40
44188.0
  1
\pxqc;{\fArial|b0|i0|c0|p34;1"X RIPPED}
  0
XRECORD
  5
F6DB
102
{ACAD_REACTORS
330
F68B
102
}
330
F68B
100
AcDbXrecord
280
     1
 40
32583.0
  1
\pxqc;{\fArial|b0|i0|c0|p34;KB324}
  0
ACDBDETAILVIEWSTYLE
  5
6662
102
{ACAD_XDICTIONARY
360
F6E7
102
}
102
{ACAD_REACTORS
330
6661
102
}
330
6661
100
AcDbModelDocViewStyle
 70
     0
  3
Imperial24
290
     0
100
AcDbDetailViewStyle
 70
     0
 71
     0
 90
        3
 71
     1
340
17
 62
   256
 40
0.24
340
0
 62
   256
 40
0.24
300

 40
0.36
280
     3
 71
     2
340
13
 90
       25
 62
   256
 71
     3
340
17
 62
   256
 40
0.24
 90
        1
 40
0.75
 90
        1
300
%<\AcVar ViewType \f "%tc1">% %<\AcVar ViewDetailId>%\PSCALE %<\AcVar ViewScale \f "%sn">%
 71
     4
340
13
 90
       25
 62
   256
340
13
 90
       25
 62
   256
280
     0
  0
LAYOUT
  5
21
102
{ACAD_XDICTIONARY
360
F2
102
}
102
{ACAD_REACTORS
330
1E
102
}
330
1E
100
AcDbPlotSettings
  1

  2
Microsoft Office Document Image Writer
  4
Letter
  6

 40
3.174999952316281
 41
3.174999952316281
 42
3.175003051757812
 43
3.17498779296875
 44
215.8999938964844
 45
279.3999938964844
 46
0.0
 47
0.0
 48
-2.53461472790289
 49
0.6160000287453951
140
3.948718379151808
141
9.099333556317906
142
1.0
143
1.0
 70
     0
 72
     0
 73
     0
 74
     4
  7

 75
     0
147
1.0
 76
     0
 77
     2
 78
   300
148
64.37921408873342
149
-15.64640073013303
100
AcDbLayout
  1
Layout1
 70
     0
 71
     1
 10
-2.659614726025578
 20
0.4910000306227066
 11
5.840385033678527
 21
11.49099979032681
 12
0.0
 22
0.0
 32
0.0
 14
-2.534614727902892
 24
0.6160000287453986
 34
0.0
 15
5.645681900551635
 25
11.29008111593019
 35
0.0
146
0.0
 13
0.0
 23
0.0
 33
0.0
 16
1.0
 26
0.0
 36
0.0
 17
0.0
 27
1.0
 37
0.0
 76
     0
330
B
331
BA
1001
ACAD_PSEXT
1000
Microsoft Office Document Image Writer
1000
Microsoft Office Document Image Writer Driver
1000
Microsoft Document Imaging Writer Port:
1000

1070
     0
  0
LAYOUT
  5
20
102
{ACAD_XDICTIONARY
360
668A
102
}
102
{ACAD_REACTORS
330
1E
102
}
330
1E
100
AcDbPlotSettings
  1

  2
none_device
  4
Letter_(8.50_x_11.00_Inches)
  6

 40
6.349999904632567
 41
6.349999904632567
 42
6.350006103515625
 43
6.350006103515625
 44
215.8999938964844
 45
279.3999938964844
 46
0.0
 47
1.778
 48
-4.250133132522924
 49
-5.500183207288167
140
4.249866867477075
141
5.499816792711832
142
1.0
143
1.062500063329939
 70
 14356
 72
     0
 73
     0
 74
     4
  7

 75
     0
147
0.9411764144897459
 76
     0
 77
     2
 78
   300
148
107.9533815660822
149
139.7046534651194
100
AcDbLayout
  1
Model
 70
     0
 71
     0
 10
0.0
 20
0.0
 11
0.0
 21
0.0
 12
0.0
 22
0.0
 32
0.0
 14
0.0
 24
0.0
 34
0.0
 15
0.0
 25
0.0
 35
0.0
146
0.0
 13
0.0
 23
0.0
 33
0.0
 16
0.0
 26
0.0
 36
0.0
 17
0.0
 27
0.0
 37
0.0
 76
     0
330
A
331
5F93
1001
ACAD_PSEXT
1000
hp LaserJet 3380 PCL 6
1000
hp LaserJet 3380 PCL 6
1000
DOT4_001
1000

1070
     0
  0
MATERIAL
  5
5FA9
102
{ACAD_XDICTIONARY
360
5FAA
102
}
102
{ACAD_REACTORS
330
60
102
}
330
60
100
AcDbMaterial
  1
ByBlock
 72
     0
 43
0.0208333333333333
 43
0.0
 43
0.0
 43
0.0
 43
0.0
 43
0.0208333333333333
 43
0.0
 43
0.0
 43
0.0
 43
0.0
 43
1.0
 43
0.0
 43
0.0
 43
0.0
 43
0.0
 43
1.0
 77
     0
 47
0.0208333333333333
 47
0.0
 47
0.0
 47
0.0
 47
0.0
 47
0.0208333333333333
 47
0.0
 47
0.0
 47
0.0
 47
0.0
 47
1.0
 47
0.0
 47
0.0
 47
0.0
 47
0.0
 47
1.0
171
     0
 49
0.0208333333333333
 49
0.0
 49
0.0
 49
0.0
 49
0.0
 49
0.0208333333333333
 49
0.0
 49
0.0
 49
0.0
 49
0.0
 49
1.0
 49
0.0
 49
0.0
 49
0.0
 49
0.0
 49
1.0
175
     0
142
0.0208333333333333
142
0.0
142
0.0
142
0.0
142
0.0
142
0.0208333333333333
142
0.0
142
0.0
142
0.0
142
0.0
142
1.0
142
0.0
142
0.0
142
0.0
142
0.0
142
1.0
179
     0
144
0.0208333333333333
144
0.0
144
0.0
144
0.0
144
0.0
144
0.0208333333333333
144
0.0
144
0.0
144
0.0
144
0.0
144
1.0
144
0.0
144
0.0
144
0.0
144
0.0
144
1.0
147
0.0208333333333333
147
0.0
147
0.0
147
0.0
147
0.0
147
0.0208333333333333
147
0.0
147
0.0
147
0.0
147
0.0
147
1.0
147
0.0
147
0.0
147
0.0
147
0.0
147
1.0
  0
MATERIAL
  5
5FA1
102
{ACAD_XDICTIONARY
360
5FA2
102
}
102
{ACAD_REACTORS
330
60
102
}
330
60
100
AcDbMaterial
  1
ByLayer
 72
     0
 43
0.0208333333333333
 43
0.0
 43
0.0
 43
0.0
 43
0.0
 43
0.0208333333333333
 43
0.0
 43
0.0
 43
0.0
 43
0.0
 43
1.0
 43
0.0
 43
0.0
 43
0.0
 43
0.0
 43
1.0
 77
     0
 47
0.0208333333333333
 47
0.0
 47
0.0
 47
0.0
 47
0.0
 47
0.0208333333333333
 47
0.0
 47
0.0
 47
0.0
 47
0.0
 47
1.0
 47
0.0
 47
0.0
 47
0.0
 47
0.0
 47
1.0
171
     0
 49
0.0208333333333333
 49
0.0
 49
0.0
 49
0.0
 49
0.0
 49
0.0208333333333333
 49
0.0
 49
0.0
 49
0.0
 49
0.0
 49
1.0
 49
0.0
 49
0.0
 49
0.0
 49
0.0
 49
1.0
175
     0
142
0.0208333333333333
142
0.0
142
0.0
142
0.0
142
0.0
142
0.0208333333333333
142
0.0
142
0.0
142
0.0
142
0.0
142
1.0
142
0.0
142
0.0
142
0.0
142
0.0
142
1.0
179
     0
144
0.0208333333333333
144
0.0
144
0.0
144
0.0
144
0.0
144
0.0208333333333333
144
0.0
144
0.0
144
0.0
144
0.0
144
1.0
144
0.0
144
0.0
144
0.0
144
0.0
144
1.0
147
0.0208333333333333
147
0.0
147
0.0
147
0.0
147
0.0
147
0.0208333333333333
147
0.0
147
0.0
147
0.0
147
0.0
147
1.0
147
0.0
147
0.0
147
0.0
147
0.0
147
1.0
  0
MATERIAL
  5
5FB1
102
{ACAD_XDICTIONARY
360
5FB2
102
}
102
{ACAD_REACTORS
330
60
102
}
330
60
100
AcDbMaterial
  1
Global
 72
     0
 43
0.0208333333333333
 43
0.0
 43
0.0
 43
0.0
 43
0.0
 43
0.0208333333333333
 43
0.0
 43
0.0
 43
0.0
 43
0.0
 43
1.0
 43
0.0
 43
0.0
 43
0.0
 43
0.0
 43
1.0
 77
     0
 47
0.0208333333333333
 47
0.0
 47
0.0
 47
0.0
 47
0.0
 47
0.0208333333333333
 47
0.0
 47
0.0
 47
0.0
 47
0.0
 47
1.0
 47
0.0
 47
0.0
 47
0.0
 47
0.0
 47
1.0
171
     0
 49
0.0208333333333333
 49
0.0
 49
0.0
 49
0.0
 49
0.0
 49
0.0208333333333333
 49
0.0
 49
0.0
 49
0.0
 49
0.0
 49
1.0
 49
0.0
 49
0.0
 49
0.0
 49
0.0
 49
1.0
175
     0
142
0.0208333333333333
142
0.0
142
0.0
142
0.0
142
0.0
142
0.0208333333333333
142
0.0
142
0.0
142
0.0
142
0.0
142
1.0
142
0.0
142
0.0
142
0.0
142
0.0
142
1.0
179
     0
144
0.0208333333333333
144
0.0
144
0.0
144
0.0
144
0.0
144
0.0208333333333333
144
0.0
144
0.0
144
0.0
144
0.0
144
1.0
144
0.0
144
0.0
144
0.0
144
0.0
144
1.0
147
0.0208333333333333
147
0.0
147
0.0
147
0.0
147
0.0
147
0.0208333333333333
147
0.0
147
0.0
147
0.0
147
0.0
147
1.0
147
0.0
147
0.0
147
0.0
147
0.0
147
1.0
  0
MLEADERSTYLE
  5
5FED
102
{ACAD_REACTORS
330
5FEC
102
}
330
5FEC
100
AcDbMLeaderStyle
179
     2
170
     2
171
     1
172
     0
 90
        2
 40
0.0
 41
0.0
173
     1
 91
-1056964608
340
11
 92
       -2
290
     1
 42
0.09
291
     1
 43
0.36
  3
Standard
 44
0.18
300

342
17
174
     1
178
     6
175
     1
176
     0
 93
-1056964608
 45
0.18
292
     0
297
     0
 46
0.18
 94
-1056964608
 47
1.0
 49
1.0
140
1.0
293
     1
141
0.0
294
     1
177
     0
142
1.0
295
     0
296
     0
143
0.125
271
     0
272
     9
273
     9
298
     0
  0
MLINESTYLE
  5
1C
102
{ACAD_REACTORS
330
1B
102
}
330
1B
100
AcDbMlineStyle
  2
STANDARD
 70
     0
  3

 62
     0
 51
90.00000000000019
 52
90.00000000000019
 71
     2
 49
0.5
 62
   256
  6
BYLAYER
 49
-0.5
 62
   256
  6
BYLAYER
  0
ACDBPLACEHOLDER
  5
1D
102
{ACAD_REACTORS
330
1F
102
}
330
1F
  0
SCALE
  5
5FCB
102
{ACAD_REACTORS
330
5FCA
102
}
330
5FCA
100
AcDbScale
 70
     0
300
1:1
140
1.0
141
1.0
290
     1
  0
SCALE
  5
5FCC
102
{ACAD_REACTORS
330
5FCA
102
}
330
5FCA
100
AcDbScale
 70
     0
300
1:2
140
1.0
141
2.0
290
     0
  0
SCALE
  5
5FCD
102
{ACAD_REACTORS
330
5FCA
102
}
330
5FCA
100
AcDbScale
 70
     0
300
1:4
140
1.0
141
4.0
290
     0
  0
SCALE
  5
5FCE
102
{ACAD_REACTORS
330
5FCA
102
}
330
5FCA
100
AcDbScale
 70
     0
300
1:5
140
1.0
141
5.0
290
     0
  0
SCALE
  5
5FCF
102
{ACAD_REACTORS
330
5FCA
102
}
330
5FCA
100
AcDbScale
 70
     0
300
1:8
140
1.0
141
8.0
290
     0
  0
SCALE
  5
5FD0
102
{ACAD_REACTORS
330
5FCA
102
}
330
5FCA
100
AcDbScale
 70
     0
300
1:10
140
1.0
141
10.0
290
     0
  0
SCALE
  5
5FD1
102
{ACAD_REACTORS
330
5FCA
102
}
330
5FCA
100
AcDbScale
 70
     0
300
1:16
140
1.0
141
16.0
290
     0
  0
SCALE
  5
5FD2
102
{ACAD_REACTORS
330
5FCA
102
}
330
5FCA
100
AcDbScale
 70
     0
300
1:20
140
1.0
141
20.0
290
     0
  0
SCALE
  5
5FD3
102
{ACAD_REACTORS
330
5FCA
102
}
330
5FCA
100
AcDbScale
 70
     0
300
1:30
140
1.0
141
30.0
290
     0
  0
SCALE
  5
5FD4
102
{ACAD_REACTORS
330
5FCA
102
}
330
5FCA
100
AcDbScale
 70
     0
300
1:40
140
1.0
141
40.0
290
     0
  0
SCALE
  5
5FD5
102
{ACAD_REACTORS
330
5FCA
102
}
330
5FCA
100
AcDbScale
 70
     0
300
1:50
140
1.0
141
50.0
290
     0
  0
SCALE
  5
5FD6
102
{ACAD_REACTORS
330
5FCA
102
}
330
5FCA
100
AcDbScale
 70
     0
300
1:100
140
1.0
141
100.0
290
     0
  0
SCALE
  5
5FD7
102
{ACAD_REACTORS
330
5FCA
102
}
330
5FCA
100
AcDbScale
 70
     0
300
2:1
140
2.0
141
1.0
290
     0
  0
SCALE
  5
5FD8
102
{ACAD_REACTORS
330
5FCA
102
}
330
5FCA
100
AcDbScale
 70
     0
300
4:1
140
4.0
141
1.0
290
     0
  0
SCALE
  5
5FD9
102
{ACAD_REACTORS
330
5FCA
102
}
330
5FCA
100
AcDbScale
 70
     0
300
8:1
140
8.0
141
1.0
290
     0
  0
SCALE
  5
5FDA
102
{ACAD_REACTORS
330
5FCA
102
}
330
5FCA
100
AcDbScale
 70
     0
300
10:1
140
10.0
141
1.0
290
     0
  0
SCALE
  5
5FDB
102
{ACAD_REACTORS
330
5FCA
102
}
330
5FCA
100
AcDbScale
 70
     0
300
100:1
140
100.0
141
1.0
290
     0
  0
SCALE
  5
5FDC
102
{ACAD_REACTORS
330
5FCA
102
}
330
5FCA
100
AcDbScale
 70
     0
300
1/128" = 1'-0"
140
0.0078125
141
12.0
290
     0
  0
SCALE
  5
5FDD
102
{ACAD_REACTORS
330
5FCA
102
}
330
5FCA
100
AcDbScale
 70
     0
300
1/64" = 1'-0"
140
0.015625
141
12.0
290
     0
  0
SCALE
  5
5FDE
102
{ACAD_REACTORS
330
5FCA
102
}
330
5FCA
100
AcDbScale
 70
     0
300
1/32" = 1'-0"
140
0.03125
141
12.0
290
     0
  0
SCALE
  5
5FDF
102
{ACAD_REACTORS
330
5FCA
102
}
330
5FCA
100
AcDbScale
 70
     0
300
1/16" = 1'-0"
140
0.0625
141
12.0
290
     0
  0
SCALE
  5
5FE0
102
{ACAD_REACTORS
330
5FCA
102
}
330
5FCA
100
AcDbScale
 70
     0
300
3/32" = 1'-0"
140
0.09375
141
12.0
290
     0
  0
SCALE
  5
5FE1
102
{ACAD_REACTORS
330
5FCA
102
}
330
5FCA
100
AcDbScale
 70
     0
300
1/8" = 1'-0"
140
0.125
141
12.0
290
     0
  0
SCALE
  5
5FE2
102
{ACAD_REACTORS
330
5FCA
102
}
330
5FCA
100
AcDbScale
 70
     0
300
3/16" = 1'-0"
140
0.1875
141
12.0
290
     0
  0
SCALE
  5
5FE3
102
{ACAD_REACTORS
330
5FCA
102
}
330
5FCA
100
AcDbScale
 70
     0
300
1/4" = 1'-0"
140
0.25
141
12.0
290
     0
  0
SCALE
  5
5FE4
102
{ACAD_REACTORS
330
5FCA
102
}
330
5FCA
100
AcDbScale
 70
     0
300
3/8" = 1'-0"
140
0.375
141
12.0
290
     0
  0
SCALE
  5
5FE5
102
{ACAD_REACTORS
330
5FCA
102
}
330
5FCA
100
AcDbScale
 70
     0
300
1/2" = 1'-0"
140
0.5
141
12.0
290
     0
  0
SCALE
  5
5FE6
102
{ACAD_REACTORS
330
5FCA
102
}
330
5FCA
100
AcDbScale
 70
     0
300
3/4" = 1'-0"
140
0.75
141
12.0
290
     0
  0
SCALE
  5
5FE7
102
{ACAD_REACTORS
330
5FCA
102
}
330
5FCA
100
AcDbScale
 70
     0
300
1" = 1'-0"
140
1.0
141
12.0
290
     0
  0
SCALE
  5
5FE8
102
{ACAD_REACTORS
330
5FCA
102
}
330
5FCA
100
AcDbScale
 70
     0
300
1-1/2" = 1'-0"
140
1.5
141
12.0
290
     0
  0
SCALE
  5
5FE9
102
{ACAD_REACTORS
330
5FCA
102
}
330
5FCA
100
AcDbScale
 70
     0
300
3" = 1'-0"
140
3.0
141
12.0
290
     0
  0
SCALE
  5
5FEA
102
{ACAD_REACTORS
330
5FCA
102
}
330
5FCA
100
AcDbScale
 70
     0
300
6" = 1'-0"
140
6.0
141
12.0
290
     0
  0
SCALE
  5
5FEB
102
{ACAD_REACTORS
330
5FCA
102
}
330
5FCA
100
AcDbScale
 70
     0
300
1'-0" = 1'-0"
140
12.0
141
12.0
290
     0
  0
ACDBSECTIONVIEWSTYLE
  5
6660
102
{ACAD_XDICTIONARY
360
F6E5
102
}
102
{ACAD_REACTORS
330
665F
102
}
330
665F
100
AcDbModelDocViewStyle
 70
     0
  3
Imperial24
290
     0
100
AcDbSectionViewStyle
 70
     0
 71
     0
 90
       78
 71
     1
340
17
 62
   256
 40
0.24
340
0
340
0
 62
   256
 40
0.24
300
I, O, Q, S, X, Z
 40
0.48
 90
        3
 40
0.18
 90
        1
 71
     2
340
13
 90
       25
 62
   256
340
13
 90
       50
 62
   256
 40
0.24
 40
0.0
 40
0.24
 71
     3
340
17
 62
   256
 40
0.24
 90
        1
 40
0.75
 90
        1
300
%<\AcVar ViewType \f "%tc1">% %<\AcVar ViewSectionStartId>%-%<\AcVar ViewSectionEndId>%\PSCALE %<\AcVar ViewScale \f "%sn">%
 71
     4
 62
   256
 62
   257
300
ANSI31
 40
1.0
 90
        0
290
     0
290
     0
 90
        6
 40
0.0
 40
1.570796326794896
 40
0.2617993877991494
 40
1.308996938995747
 40
-0.2617993877991494
 40
1.832595714594044
  0
TABLESTYLE
  5
63
102
{ACAD_XDICTIONARY
360
6034
102
}
102
{ACAD_REACTORS
330
62
102
}
330
62
100
AcDbTableStyle
280
     0
  3
Standard
 70
     0
 71
     0
 40
0.06
 41
0.06
280
     0
281
     0
  7
Standard
140
0.18
170
     2
 62
     0
 63
     7
283
     0
 90
        4
 91
        0
  1

274
    -2
284
     1
 64
     0
275
    -2
285
     1
 65
     0
276
    -2
286
     1
 66
     0
277
    -2
287
     1
 67
     0
278
    -2
288
     1
 68
     0
279
    -2
289
     1
 69
     0
  7
Standard
140
0.25
170
     5
 62
     0
 63
     7
283
     0
 90
        4
 91
        0
  1

274
    -2
284
     1
 64
     0
275
    -2
285
     1
 65
     0
276
    -2
286
     1
 66
     0
277
    -2
287
     1
 67
     0
278
    -2
288
     1
 68
     0
279
    -2
289
     1
 69
     0
  7
Standard
140
0.18
170
     5
 62
     0
 63
     7
283
     0
 90
        4
 91
        0
  1

274
    -2
284
     1
 64
     0
275
    -2
285
     1
 65
     0
276
    -2
286
     1
 66
     0
277
    -2
287
     1
 67
     0
278
    -2
288
     1
 68
     0
279
    -2
289
     1
 69
     0
1001
ACAD
1000
AcRTDxfName
1000
TABLESTYLE
  0
VISUALSTYLE
  5
5FBF
102
{ACAD_REACTORS
330
5FB9
102
}
330
5FB9
100
AcDbVisualStyle
  2

 70
     4
177
     3
291
     0
 70
    58
 90
        0
176
     1
 90
        2
176
     1
 90
        0
176
     1
 90
        0
176
     1
 40
0.6
176
     1
 40
30.0
176
     1
 62
     7
176
     1
 90
        1
176
     1
 90
        4
176
     1
 62
     7
176
     1
 62
   257
176
     1
 90
        1
176
     1
 90
        1
176
     1
 40
1.0
176
     1
 90
        0
176
     1
 62
   257
176
     1
 40
1.0
176
     1
 90
        1
176
     1
 90
        6
176
     1
 90
        2
176
     1
 62
     7
176
     1
 90
        5
176
     1
 90
        0
176
     1
 90
        0
176
     1
290
     0
176
     1
 90
        1
176
     1
 40
0.0
176
     1
 90
        0
176
     1
290
     1
176
     1
290
     1
176
     1
290
     0
176
     1
290
     0
176
     1
290
     0
176
     1
290
     0
176
     1
290
     0
176
     1
290
     0
176
     1
290
     0
176
     1
 90
       50
176
     1
 40
0.0
176
     1
 40
1.0
176
     1
 90
        0
176
     1
 62
    18
420
        0
176
     1
 90
       50
176
     1
 90
        3
176
     1
 62
     5
420
      255
176
     1
290
     0
176
     1
 90
       50
176
     1
 90
       50
176
     1
 90
       50
176
     1
290
     0
176
     1
 90
       50
176
     1
 62
   256
176
     0
 40
1.0
176
     0
 90
        2
176
     1
  1
strokes_ogs.tif
176
     1
290
     0
176
     1
 40
1.0
176
     1
 40
1.0
176
     1
1001
ACAD
1000
AcDbSavedByObjectVersion
1070
     0
  0
VISUALSTYLE
  5
5FC1
102
{ACAD_REACTORS
330
5FB9
102
}
330
5FB9
100
AcDbVisualStyle
  2

 70
     6
177
     3
291
     0
 70
    58
 90
        1
176
     1
 90
        2
176
     1
 90
        2
176
     1
 90
        0
176
     1
 40
0.6
176
     1
 40
30.0
176
     1
 62
     7
176
     1
 90
        2
176
     1
 90
        2
176
     1
 62
     7
176
     1
 62
   257
176
     1
 90
        2
176
     1
 90
        1
176
     1
 40
40.0
176
     1
 90
        0
176
     1
 62
   257
176
     1
 40
1.0
176
     1
 90
        1
176
     1
 90
        6
176
     1
 90
        2
176
     1
 62
     7
176
     1
 90
        3
176
     1
 90
        0
176
     1
 90
        0
176
     1
290
     0
176
     1
 90
        1
176
     1
 40
0.0
176
     1
 90
        0
176
     1
290
     0
176
     1
290
     1
176
     1
290
     1
176
     1
290
     0
176
     1
290
     0
176
     1
290
     0
176
     1
290
     0
176
     1
290
     0
176
     1
290
     0
176
     1
 90
       50
176
     1
 40
0.0
176
     1
 40
1.0
176
     1
 90
        0
176
     1
 62
    18
420
        0
176
     1
 90
       50
176
     1
 90
        3
176
     1
 62
     5
420
      255
176
     1
290
     0
176
     1
 90
       50
176
     1
 90
       50
176
     1
 90
       50
176
     1
290
     0
176
     1
 90
       50
176
     1
 62
   256
176
     0
 40
1.0
176
     0
 90
        2
176
     1
  1
strokes_ogs.tif
176
     1
290
     0
176
     1
 40
1.0
176
     1
 40
1.0
176
     1
1001
ACAD
1000
AcDbSavedByObjectVersion
1070
     0
  0
VISUALSTYLE
  5
5FC0
102
{ACAD_REACTORS
330
5FB9
102
}
330
5FB9
100
AcDbVisualStyle
  2

 70
     5
177
     3
291
     0
 70
    58
 90
        0
176
     1
 90
        2
176
     1
 90
        0
176
     1
 90
        0
176
     1
 40
0.6
176
     1
 40
30.0
176
     1
 62
     7
176
     1
 90
        1
176
     1
 90
        4
176
     1
 62
     7
176
     1
 62
   257
176
     1
 90
        1
176
     1
 90
        1
176
     1
 40
1.0
176
     1
 90
        0
176
     1
 62
   257
176
     1
 40
1.0
176
     1
 90
        1
176
     1
 90
        6
176
     1
 90
        2
176
     1
 62
     7
176
     1
 90
        5
176
     1
 90
        0
176
     1
 90
        0
176
     1
290
     0
176
     1
 90
        1
176
     1
 40
0.0
176
     1
 90
        0
176
     1
290
     0
176
     1
290
     1
176
     1
290
     1
176
     1
290
     0
176
     1
290
     0
176
     1
290
     0
176
     1
290
     0
176
     1
290
     0
176
     1
290
     0
176
     1
 90
       50
176
     1
 40
0.0
176
     1
 40
1.0
176
     1
 90
        0
176
     1
 62
    18
420
        0
176
     1
 90
       50
176
     1
 90
        3
176
     1
 62
     5
420
      255
176
     1
290
     0
176
     1
 90
       50
176
     1
 90
       50
176
     1
 90
       50
176
     1
290
     0
176
     1
 90
       50
176
     1
 62
   256
176
     0
 40
1.0
176
     0
 90
        2
176
     1
  1
strokes_ogs.tif
176
     1
290
     0
176
     1
 40
1.0
176
     1
 40
1.0
176
     1
1001
ACAD
1000
AcDbSavedByObjectVersion
1070
     0
  0
VISUALSTYLE
  5
5FBE
102
{ACAD_REACTORS
330
5FB9
102
}
330
5FB9
100
AcDbVisualStyle
  2

 70
     7
177
     3
291
     1
 70
    58
 90
        1
176
     1
 90
        0
176
     1
 90
        1
176
     1
 90
        0
176
     1
 40
0.6
176
     1
 40
30.0
176
     1
 62
     7
176
     1
 90
        0
176
     1
 90
        4
176
     1
 62
     7
176
     1
 62
   257
176
     1
 90
        1
176
     1
 90
        1
176
     1
 40
1.0
176
     1
 90
        8
176
     1
 62
     7
176
     1
 40
1.0
176
     1
 90
        1
176
     1
 90
        6
176
     1
 90
        2
176
     1
 62
     7
176
     1
 90
        5
176
     1
 90
        0
176
     1
 90
        0
176
     1
290
     0
176
     1
 90
        1
176
     1
 40
0.0
176
     1
 90
        0
176
     1
290
     0
176
     1
290
     1
176
     1
290
     1
176
     1
290
     0
176
     1
290
     0
176
     1
290
     0
176
     1
290
     0
176
     1
290
     0
176
     1
290
     0
176
     1
 90
       50
176
     1
 40
0.0
176
     1
 40
1.0
176
     1
 90
        0
176
     1
 62
    18
420
        0
176
     1
 90
       50
176
     1
 90
        3
176
     1
 62
     5
420
      255
176
     1
290
     0
176
     1
 90
       50
176
     1
 90
       50
176
     1
 90
       50
176
     1
290
     0
176
     1
 90
       50
176
     1
 62
   256
176
     0
 40
1.0
176
     0
 90
        2
176
     1
  1
strokes_ogs.tif
176
     1
290
     0
176
     1
 40
1.0
176
     1
 40
1.0
176
     1
1001
ACAD
1000
AcDbSavedByObjectVersion
1070
     0
  0
VISUALSTYLE
  5
5FC5
102
{ACAD_REACTORS
330
5FB9
102
}
330
5FB9
100
AcDbVisualStyle
  2

 70
    12
177
     3
291
     1
 70
    58
 90
        2
176
     1
 90
        2
176
     1
 90
        0
176
     1
 90
        0
176
     1
 40
0.6
176
     1
 40
30.0
176
     1
 62
     7
176
     1
 90
        1
176
     1
 90
        4
176
     1
 62
     7
176
     1
 62
   257
176
     1
 90
        1
176
     1
 90
        1
176
     1
 40
1.0
176
     1
 90
        8
176
     1
 62
     7
176
     1
 40
1.0
176
     1
 90
        1
176
     1
 90
        6
176
     1
 90
        2
176
     1
 62
     7
176
     1
 90
        5
176
     1
 90
        0
176
     1
 90
        0
176
     1
290
     0
176
     1
 90
        1
176
     1
 40
50.0
176
     1
 90
        0
176
     1
290
     0
176
     1
290
     1
176
     1
290
     1
176
     1
290
     0
176
     1
290
     0
176
     1
290
     0
176
     1
290
     0
176
     1
290
     0
176
     1
290
     0
176
     1
 90
       50
176
     1
 40
0.0
176
     1
 40
1.0
176
     1
 90
        0
176
     1
 62
    18
420
        0
176
     1
 90
       50
176
     1
 90
        3
176
     1
 62
     5
420
      255
176
     1
290
     0
176
     1
 90
       50
176
     1
 90
       50
176
     1
 90
       50
176
     1
290
     0
176
     1
 90
       50
176
     1
 62
   256
176
     0
 40
1.0
176
     0
 90
        2
176
     1
  1
strokes_ogs.tif
176
     1
290
     0
176
     1
 40
1.0
176
     1
 40
1.0
176
     1
1001
ACAD
1000
AcDbSavedByObjectVersion
1070
     0
  0
VISUALSTYLE
  5
5FC9
102
{ACAD_REACTORS
330
5FB9
102
}
330
5FB9
100
AcDbVisualStyle
  2

 70
    16
177
     3
291
     1
 70
    58
 90
        2
176
     1
 90
        2
176
     1
 90
        3
176
     1
 90
        0
176
     1
 40
0.6
176
     1
 40
30.0
176
     1
 62
     8
176
     1
 90
        1
176
     1
 90
        4
176
     1
 62
     7
176
     1
 62
   257
176
     1
 90
        1
176
     1
 90
        1
176
     1
 40
1.0
176
     1
 90
        8
176
     1
 62
     8
176
     1
 40
1.0
176
     1
 90
        1
176
     1
 90
        6
176
     1
 90
        2
176
     1
 62
     7
176
     1
 90
        5
176
     1
 90
        0
176
     1
 90
        0
176
     1
290
     0
176
     1
 90
        1
176
     1
 40
0.0
176
     1
 90
        0
176
     1
290
     0
176
     1
290
     1
176
     1
290
     1
176
     1
290
     0
176
     1
290
     0
176
     1
290
     0
176
     1
290
     0
176
     1
290
     0
176
     1
290
     0
176
     1
 90
       50
176
     1
 40
0.0
176
     1
 40
1.0
176
     1
 90
        0
176
     1
 62
    18
420
        0
176
     1
 90
       50
176
     1
 90
        3
176
     1
 62
     5
420
      255
176
     1
290
     0
176
     1
 90
       50
176
     1
 90
       50
176
     1
 90
       50
176
     1
290
     0
176
     1
 90
       50
176
     1
 62
   256
176
     0
 40
1.0
176
     0
 90
        2
176
     1
  1
strokes_ogs.tif
176
     1
290
     0
176
     1
 40
1.0
176
     1
 40
1.0
176
     1
1001
ACAD
1000
AcDbSavedByObjectVersion
1070
     0
  0
VISUALSTYLE
  5
5FC2
102
{ACAD_REACTORS
330
5FB9
102
}
330
5FB9
100
AcDbVisualStyle
  2

 70
     9
177
     3
291
     0
 70
    58
 90
        3
176
     1
 90
        2
176
     1
 90
        0
176
     1
 90
        0
176
     1
 40
0.6
176
     1
 40
30.0
176
     1
 62
     7
176
     1
 90
        2
176
     1
 90
        2
176
     1
 62
     7
176
     1
 62
   257
176
     1
 90
        1
176
     1
 90
        1
176
     1
 40
40.0
176
     1
 90
        8
176
     1
 62
     7
176
     1
 40
1.0
176
     1
 90
        1
176
     1
 90
        6
176
     1
 90
        2
176
     1
 62
     7
176
     1
 90
        3
176
     1
 90
        0
176
     1
 90
        0
176
     1
290
     0
176
     1
 90
        1
176
     1
 40
0.0
176
     1
 90
        0
176
     1
290
     0
176
     1
290
     1
176
     1
290
     1
176
     1
290
     0
176
     1
290
     0
176
     1
290
     0
176
     1
290
     0
176
     1
290
     0
176
     1
290
     0
176
     1
 90
       50
176
     1
 40
0.0
176
     1
 40
1.0
176
     1
 90
        0
176
     1
 62
    18
420
        0
176
     1
 90
       50
176
     1
 90
        3
176
     1
 62
     5
420
      255
176
     1
290
     0
176
     1
 90
       50
176
     1
 90
       50
176
     1
 90
       50
176
     1
290
     0
176
     1
 90
       50
176
     1
 62
   256
176
     0
 40
1.0
176
     0
 90
        2
176
     1
  1
strokes_ogs.tif
176
     1
290
     0
176
     1
 40
1.0
176
     1
 40
1.0
176
     1
1001
ACAD
1000
AcDbSavedByObjectVersion
1070
     0
  0
VISUALSTYLE
  5
5FC4
102
{ACAD_REACTORS
330
5FB9
102
}
330
5FB9
100
AcDbVisualStyle
  2

 70
    11
177
     3
291
     1
 70
    58
 90
        2
176
     1
 90
        2
176
     1
 90
        0
176
     1
 90
        0
176
     1
 40
0.6
176
     1
 40
30.0
176
     1
 62
     7
176
     1
 90
        1
176
     1
 90
        4
176
     1
 62
     7
176
     1
 62
   257
176
     1
 90
        1
176
     1
 90
        1
176
     1
 40
1.0
176
     1
 90
        8
176
     1
 62
     7
176
     1
 40
1.0
176
     1
 90
        1
176
     1
 90
        6
176
     1
 90
        2
176
     1
 62
     7
176
     1
 90
        5
176
     1
 90
        0
176
     1
 90
        0
176
     1
290
     0
176
     1
 90
        1
176
     1
 40
-50.0
176
     1
 90
        0
176
     1
290
     0
176
     1
290
     1
176
     1
290
     1
176
     1
290
     0
176
     1
290
     0
176
     1
290
     0
176
     1
290
     0
176
     1
290
     0
176
     1
290
     0
176
     1
 90
       50
176
     1
 40
0.0
176
     1
 40
1.0
176
     1
 90
        0
176
     1
 62
    18
420
        0
176
     1
 90
       50
176
     1
 90
        3
176
     1
 62
     5
420
      255
176
     1
290
     0
176
     1
 90
       50
176
     1
 90
       50
176
     1
 90
       50
176
     1
290
     0
176
     1
 90
       50
176
     1
 62
   256
176
     0
 40
1.0
176
     0
 90
        2
176
     1
  1
strokes_ogs.tif
176
     1
290
     0
176
     1
 40
1.0
176
     1
 40
1.0
176
     1
1001
ACAD
1000
AcDbSavedByObjectVersion
1070
     0
  0
VISUALSTYLE
  5
665E
102
{ACAD_REACTORS
330
5FB9
102
}
330
5FB9
100
AcDbVisualStyle
  2

 70
    22
177
     3
291
     1
 70
    58
 90
        2
176
     0
 90
        2
176
     0
 90
        0
176
     0
 90
        0
176
     0
 40
0.6
176
     0
 40
30.0
176
     0
 62
     7
176
     0
 90
        1
176
     0
 90
        4
176
     0
 62
     7
176
     0
 62
   257
176
     0
 90
        1
176
     0
 90
        1
176
     0
 40
1.0
176
     0
 90
        8
176
     2
 62
     7
176
     0
 40
1.0
176
     0
 90
        1
176
     0
 90
        6
176
     0
 90
        2
176
     0
 62
     7
176
     0
 90
        5
176
     0
 90
        0
176
     0
 90
        0
176
     0
290
     0
176
     0
 90
        1
176
     0
 40
0.0
176
     0
 90
        0
176
     0
290
     0
176
     0
290
     1
176
     0
290
     1
176
     0
290
     0
176
     0
290
     0
176
     0
290
     0
176
     0
290
     0
176
     0
290
     0
176
     0
290
     0
176
     0
 90
       50
176
     0
 40
0.0
176
     0
 40
1.0
176
     0
 90
        0
176
     0
 62
    18
420
        0
176
     0
 90
       50
176
     0
 90
        3
176
     0
 62
     5
420
      255
176
     0
290
     0
176
     0
 90
       50
176
     0
 90
       50
176
     0
 90
       50
176
     0
290
     0
176
     0
 90
       50
176
     0
 62
   256
176
     0
 40
1.0
176
     0
 90
        2
176
     0
  1
strokes_ogs.tif
176
     0
290
     0
176
     0
 40
1.0
176
     0
 40
1.0
176
     0
1001
ACAD
1000
AcDbSavedByObjectVersion
1070
     0
  0
VISUALSTYLE
  5
5FC8
102
{ACAD_REACTORS
330
5FB9
102
}
330
5FB9
100
AcDbVisualStyle
  2

 70
    15
177
     3
291
     1
 70
    58
 90
        2
176
     1
 90
        2
176
     1
 90
        0
176
     1
 90
        0
176
     1
 40
0.6
176
     1
 40
30.0
176
     1
 62
     7
176
     1
 90
        1
176
     1
 90
        4
176
     1
 62
     7
176
     1
 62
   257
176
     1
 90
        1
176
     1
 90
        1
176
     1
 40
1.0
176
     1
 90
        8
176
     1
 62
     7
176
     1
 40
1.0
176
     1
 90
        1
176
     1
 90
        6
176
     1
 90
        2
176
     1
 62
     7
176
     1
 90
        5
176
     1
 90
        0
176
     1
 90
        0
176
     1
290
     0
176
     1
 90
        1
176
     1
 40
0.0
176
     1
 90
        0
176
     1
290
     0
176
     1
290
     1
176
     1
290
     1
176
     1
290
     0
176
     1
290
     0
176
     1
290
     0
176
     1
290
     0
176
     1
290
     0
176
     1
290
     0
176
     1
 90
       50
176
     1
 40
0.0
176
     1
 40
1.0
176
     1
 90
        0
176
     1
 62
    18
420
        0
176
     1
 90
       50
176
     1
 90
        3
176
     1
 62
     5
420
      255
176
     1
290
     0
176
     1
 90
       50
176
     1
 90
       50
176
     1
 90
       50
176
     1
290
     0
176
     1
 90
       50
176
     1
 62
   256
176
     0
 40
1.0
176
     0
 90
        2
176
     1
  1
strokes_ogs.tif
176
     1
290
     0
176
     1
 40
1.0
176
     1
 40
1.0
176
     1
1001
ACAD
1000
AcDbSavedByObjectVersion
1070
     0
  0
VISUALSTYLE
  5
5FBA
102
{ACAD_REACTORS
330
5FB9
102
}
330
5FB9
100
AcDbVisualStyle
  2

 70
     0
177
     3
291
     1
 70
    58
 90
        2
176
     1
 90
        1
176
     1
 90
        1
176
     1
 90
        2
176
     1
 40
0.6
176
     1
 40
30.0
176
     1
 62
     7
176
     1
 90
        0
176
     1
 90
        4
176
     1
 62
     7
176
     1
 62
   257
176
     1
 90
        1
176
     1
 90
        1
176
     1
 40
1.0
176
     1
 90
        8
176
     1
 62
     7
176
     1
 40
1.0
176
     1
 90
        1
176
     1
 90
        6
176
     1
 90
        2
176
     1
 62
     7
176
     1
 90
        5
176
     1
 90
        0
176
     1
 90
        0
176
     1
290
     0
176
     1
 90
       13
176
     1
 40
0.0
176
     1
 90
        0
176
     1
290
     0
176
     1
290
     1
176
     1
290
     1
176
     1
290
     0
176
     1
290
     0
176
     1
290
     0
176
     1
290
     0
176
     1
290
     0
176
     1
290
     0
176
     1
 90
       50
176
     1
 40
0.0
176
     1
 40
1.0
176
     1
 90
        0
176
     1
 62
    18
420
        0
176
     1
 90
       50
176
     1
 90
        3
176
     1
 62
     5
420
      255
176
     1
290
     0
176
     1
 90
       50
176
     1
 90
       50
176
     1
 90
       50
176
     1
290
     0
176
     1
 90
       50
176
     1
 62
   256
176
     0
 40
1.0
176
     0
 90
        2
176
     1
  1
strokes_ogs.tif
176
     1
290
     0
176
     1
 40
1.0
176
     1
 40
1.0
176
     1
1001
ACAD
1000
AcDbSavedByObjectVersion
1070
     0
  0
VISUALSTYLE
  5
5FBB
102
{ACAD_REACTORS
330
5FB9
102
}
330
5FB9
100
AcDbVisualStyle
  2

 70
     1
177
     3
291
     1
 70
    58
 90
        2
176
     1
 90
        1
176
     1
 90
        1
176
     1
 90
        2
176
     1
 40
0.6
176
     1
 40
30.0
176
     1
 62
     7
176
     1
 90
        1
176
     1
 90
        4
176
     1
 62
     7
176
     1
 62
   257
176
     1
 90
        1
176
     1
 90
        1
176
     1
 40
1.0
176
     1
 90
        0
176
     1
 62
   257
176
     1
 40
1.0
176
     1
 90
        1
176
     1
 90
        6
176
     1
 90
        2
176
     1
 62
     7
176
     1
 90
        5
176
     1
 90
        0
176
     1
 90
        0
176
     1
290
     0
176
     1
 90
       13
176
     1
 40
0.0
176
     1
 90
        0
176
     1
290
     0
176
     1
290
     1
176
     1
290
     1
176
     1
290
     0
176
     1
290
     0
176
     1
290
     0
176
     1
290
     0
176
     1
290
     0
176
     1
290
     0
176
     1
 90
       50
176
     1
 40
0.0
176
     1
 40
1.0
176
     1
 90
        0
176
     1
 62
    18
420
        0
176
     1
 90
       50
176
     1
 90
        3
176
     1
 62
     5
420
      255
176
     1
290
     0
176
     1
 90
       50
176
     1
 90
       50
176
     1
 90
       50
176
     1
290
     0
176
     1
 90
       50
176
     1
 62
   256
176
     0
 40
1.0
176
     0
 90
        2
176
     1
  1
strokes_ogs.tif
176
     1
290
     0
176
     1
 40
1.0
176
     1
 40
1.0
176
     1
1001
ACAD
1000
AcDbSavedByObjectVersion
1070
     0
  0
VISUALSTYLE
  5
5FBC
102
{ACAD_REACTORS
330
5FB9
102
}
330
5FB9
100
AcDbVisualStyle
  2

 70
     2
177
     3
291
     1
 70
    58
 90
        2
176
     1
 90
        2
176
     1
 90
        1
176
     1
 90
        2
176
     1
 40
0.6
176
     1
 40
30.0
176
     1
 62
     7
176
     1
 90
        0
176
     1
 90
        4
176
     1
 62
     7
176
     1
 62
   257
176
     1
 90
        1
176
     1
 90
        1
176
     1
 40
1.0
176
     1
 90
        0
176
     1
 62
     7
176
     1
 40
1.0
176
     1
 90
        1
176
     1
 90
        6
176
     1
 90
        2
176
     1
 62
     7
176
     1
 90
        5
176
     1
 90
        0
176
     1
 90
        0
176
     1
290
     0
176
     1
 90
       13
176
     1
 40
0.0
176
     1
 90
        0
176
     1
290
     0
176
     1
290
     1
176
     1
290
     1
176
     1
290
     0
176
     1
290
     0
176
     1
290
     0
176
     1
290
     0
176
     1
290
     0
176
     1
290
     0
176
     1
 90
       50
176
     1
 40
0.0
176
     1
 40
1.0
176
     1
 90
        0
176
     1
 62
    18
420
        0
176
     1
 90
       50
176
     1
 90
        3
176
     1
 62
     5
420
      255
176
     1
290
     0
176
     1
 90
       50
176
     1
 90
       50
176
     1
 90
       50
176
     1
290
     0
176
     1
 90
       50
176
     1
 62
   256
176
     0
 40
1.0
176
     0
 90
        2
176
     1
  1
strokes_ogs.tif
176
     1
290
     0
176
     1
 40
1.0
176
     1
 40
1.0
176
     1
1001
ACAD
1000
AcDbSavedByObjectVersion
1070
     0
  0
VISUALSTYLE
  5
5FBD
102
{ACAD_REACTORS
330
5FB9
102
}
330
5FB9
100
AcDbVisualStyle
  2

 70
     3
177
     3
291
     1
 70
    58
 90
        2
176
     1
 90
        2
176
     1
 90
        1
176
     1
 90
        2
176
     1
 40
0.6
176
     1
 40
30.0
176
     1
 62
     7
176
     1
 90
        1
176
     1
 90
        4
176
     1
 62
     7
176
     1
 62
   257
176
     1
 90
        1
176
     1
 90
        1
176
     1
 40
1.0
176
     1
 90
        0
176
     1
 62
   257
176
     1
 40
1.0
176
     1
 90
        1
176
     1
 90
        6
176
     1
 90
        2
176
     1
 62
     7
176
     1
 90
        5
176
     1
 90
        0
176
     1
 90
        0
176
     1
290
     0
176
     1
 90
       13
176
     1
 40
0.0
176
     1
 90
        0
176
     1
290
     0
176
     1
290
     1
176
     1
290
     1
176
     1
290
     0
176
     1
290
     0
176
     1
290
     0
176
     1
290
     0
176
     1
290
     0
176
     1
290
     0
176
     1
 90
       50
176
     1
 40
0.0
176
     1
 40
1.0
176
     1
 90
        0
176
     1
 62
    18
420
        0
176
     1
 90
       50
176
     1
 90
        3
176
     1
 62
     5
420
      255
176
     1
290
     0
176
     1
 90
       50
176
     1
 90
       50
176
     1
 90
       50
176
     1
290
     0
176
     1
 90
       50
176
     1
 62
   256
176
     0
 40
1.0
176
     0
 90
        2
176
     1
  1
strokes_ogs.tif
176
     1
290
     0
176
     1
 40
1.0
176
     1
 40
1.0
176
     1
1001
ACAD
1000
AcDbSavedByObjectVersion
1070
     0
  0
VISUALSTYLE
  5
6656
102
{ACAD_REACTORS
330
5FB9
102
}
330
5FB9
100
AcDbVisualStyle
  2

 70
     6
177
     3
291
     0
 70
    58
 90
        1
176
     1
 90
        2
176
     1
 90
        2
176
     1
 90
        0
176
     1
 40
0.6
176
     1
 40
30.0
176
     1
 62
     7
176
     1
 90
        2
176
     1
 90
        2
176
     1
 62
     7
176
     1
 62
   257
176
     1
 90
        2
176
     1
 90
        1
176
     1
 40
40.0
176
     1
 90
        0
176
     1
 62
   257
176
     1
 40
1.0
176
     1
 90
        1
176
     1
 90
        6
176
     1
 90
        2
176
     1
 62
     7
176
     1
 90
        3
176
     1
 90
        0
176
     1
 90
        0
176
     1
290
     0
176
     1
 90
        1
176
     1
 40
0.0
176
     1
 90
        0
176
     1
290
     0
176
     1
290
     1
176
     1
290
     1
176
     1
290
     0
176
     1
290
     0
176
     1
290
     0
176
     1
290
     0
176
     1
290
     0
176
     1
290
     0
176
     1
 90
       50
176
     1
 40
0.0
176
     1
 40
1.0
176
     1
 90
        0
176
     1
 62
    18
420
        0
176
     1
 90
       50
176
     1
 90
        3
176
     1
 62
     5
420
      255
176
     1
290
     0
176
     1
 90
       50
176
     1
 90
       50
176
     1
 90
       50
176
     1
290
     0
176
     1
 90
       50
176
     1
 62
   256
176
     0
 40
1.0
176
     0
 90
        2
176
     1
  1
strokes_ogs.tif
176
     1
290
     0
176
     1
 40
1.0
176
     1
 40
1.0
176
     1
1001
ACAD
1000
AcDbSavedByObjectVersion
1070
     0
  0
VISUALSTYLE
  5
665C
102
{ACAD_REACTORS
330
5FB9
102
}
330
5FB9
100
AcDbVisualStyle
  2

 70
    20
177
     3
291
     1
 70
    58
 90
        2
176
     0
 90
        2
176
     0
 90
        0
176
     0
 90
        0
176
     0
 40
0.6
176
     0
 40
30.0
176
     0
 62
     7
176
     0
 90
        1
176
     0
 90
        4
176
     0
 62
     7
176
     0
 62
   257
176
     0
 90
        1
176
     0
 90
        1
176
     0
 40
1.0
176
     0
 90
       10
176
     2
 62
     7
176
     0
 40
1.0
176
     0
 90
        1
176
     0
 90
        6
176
     0
 90
        2
176
     0
 62
     7
176
     0
 90
        5
176
     0
 90
        0
176
     0
 90
        0
176
     0
290
     0
176
     0
 90
        1
176
     0
 40
0.0
176
     0
 90
        0
176
     0
290
     0
176
     0
290
     1
176
     0
290
     1
176
     0
290
     0
176
     0
290
     0
176
     0
290
     0
176
     0
290
     0
176
     0
290
     0
176
     0
290
     0
176
     0
 90
       50
176
     0
 40
0.0
176
     0
 40
1.0
176
     0
 90
        0
176
     0
 62
    18
420
        0
176
     0
 90
       50
176
     0
 90
        3
176
     0
 62
     5
420
      255
176
     0
290
     0
176
     0
 90
       50
176
     0
 90
       50
176
     0
 90
       50
176
     0
290
     0
176
     0
 90
       50
176
     0
 62
   256
176
     0
 40
1.0
176
     0
 90
        2
176
     0
  1
strokes_ogs.tif
176
     0
290
     0
176
     0
 40
1.0
176
     0
 40
1.0
176
     0
1001
ACAD
1000
AcDbSavedByObjectVersion
1070
     0
  0
VISUALSTYLE
  5
5FC7
102
{ACAD_REACTORS
330
5FB9
102
}
330
5FB9
100
AcDbVisualStyle
  2

 70
    14
177
     3
291
     1
 70
    58
 90
        2
176
     1
 90
        2
176
     1
 90
        0
176
     1
 90
        0
176
     1
 40
0.6
176
     1
 40
30.0
176
     1
 62
     7
176
     1
 90
        1
176
     1
 90
        4
176
     1
 62
     7
176
     1
 62
   257
176
     1
 90
        7
176
     1
 90
        7
176
     1
 40
1.0
176
     1
 90
        8
176
     1
 62
     7
176
     1
 40
1.0
176
     1
 90
        1
176
     1
 90
        6
176
     1
 90
        2
176
     1
 62
     7
176
     1
 90
        5
176
     1
 90
        0
176
     1
 90
        0
176
     1
290
     0
176
     1
 90
        1
176
     1
 40
0.0
176
     1
 90
        0
176
     1
290
     0
176
     1
290
     1
176
     1
290
     1
176
     1
290
     0
176
     1
290
     0
176
     1
290
     0
176
     1
290
     0
176
     1
290
     0
176
     1
290
     0
176
     1
 90
       50
176
     1
 40
0.0
176
     1
 40
1.0
176
     1
 90
        0
176
     1
 62
    18
420
        0
176
     1
 90
       50
176
     1
 90
        3
176
     1
 62
     5
420
      255
176
     1
290
     0
176
     1
 90
       50
176
     1
 90
       50
176
     1
 90
       50
176
     1
290
     0
176
     1
 90
       50
176
     1
 62
   256
176
     0
 40
1.0
176
     0
 90
        2
176
     1
  1
strokes_ogs.tif
176
     1
290
     0
176
     1
 40
1.0
176
     1
 40
1.0
176
     1
1001
ACAD
1000
AcDbSavedByObjectVersion
1070
     0
  0
VISUALSTYLE
  5
665D
102
{ACAD_REACTORS
330
5FB9
102
}
330
5FB9
100
AcDbVisualStyle
  2

 70
    21
177
     3
291
     1
 70
    58
 90
        2
176
     0
 90
        2
176
     0
 90
        0
176
     0
 90
        0
176
     0
 40
0.6
176
     0
 40
30.0
176
     0
 62
     7
176
     0
 90
        1
176
     0
 90
        4
176
     0
 62
     7
176
     0
 62
   257
176
     0
 90
        1
176
     0
 90
        1
176
     0
 40
1.0
176
     0
 90
        9
176
     2
 62
     7
176
     0
 40
1.0
176
     0
 90
        1
176
     0
 90
        6
176
     0
 90
        2
176
     0
 62
     7
176
     0
 90
        5
176
     0
 90
        0
176
     0
 90
        0
176
     0
290
     0
176
     0
 90
        1
176
     0
 40
0.0
176
     0
 90
        0
176
     0
290
     0
176
     0
290
     1
176
     0
290
     1
176
     0
290
     0
176
     0
290
     0
176
     0
290
     0
176
     0
290
     0
176
     0
290
     0
176
     0
290
     0
176
     0
 90
       50
176
     0
 40
0.0
176
     0
 40
1.0
176
     0
 90
        0
176
     0
 62
    18
420
        0
176
     0
 90
       50
176
     0
 90
        3
176
     0
 62
     5
420
      255
176
     0
290
     0
176
     0
 90
       50
176
     0
 90
       50
176
     0
 90
       50
176
     0
290
     0
176
     0
 90
       50
176
     0
 62
   256
176
     0
 40
1.0
176
     0
 90
        2
176
     0
  1
strokes_ogs.tif
176
     0
290
     0
176
     0
 40
1.0
176
     0
 40
1.0
176
     0
1001
ACAD
1000
AcDbSavedByObjectVersion
1070
     0
  0
VISUALSTYLE
  5
5FC3
102
{ACAD_REACTORS
330
5FB9
102
}
330
5FB9
100
AcDbVisualStyle
  2

 70
     8
177
     3
291
     0
 70
    58
 90
        2
176
     1
 90
        2
176
     1
 90
        0
176
     1
 90
        0
176
     1
 40
0.6
176
     1
 40
30.0
176
     1
 62
     7
176
     1
 90
        1
176
     1
 90
        0
176
     1
 62
     7
176
     1
 62
   257
176
     1
 90
        1
176
     1
 90
        1
176
     1
 40
1.0
176
     1
 90
        8
176
     1
 62
     8
176
     1
 40
1.0
176
     1
 90
        1
176
     1
 90
        6
176
     1
 90
        2
176
     1
 62
     7
176
     1
 90
        5
176
     1
 90
        0
176
     1
 90
        0
176
     1
290
     0
176
     1
 90
       13
176
     1
 40
0.0
176
     1
 90
        0
176
     1
290
     0
176
     1
290
     1
176
     1
290
     1
176
     1
290
     0
176
     1
290
     0
176
     1
290
     0
176
     1
290
     0
176
     1
290
     0
176
     1
290
     0
176
     1
 90
       50
176
     1
 40
0.0
176
     1
 40
1.0
176
     1
 90
        0
176
     1
 62
    18
420
        0
176
     1
 90
       50
176
     1
 90
        3
176
     1
 62
     5
420
      255
176
     1
290
     0
176
     1
 90
       50
176
     1
 90
       50
176
     1
 90
       50
176
     1
290
     0
176
     1
 90
       50
176
     1
 62
   256
176
     0
 40
1.0
176
     0
 90
        2
176
     1
  1
strokes_ogs.tif
176
     1
290
     0
176
     1
 40
1.0
176
     1
 40
1.0
176
     1
1001
ACAD
1000
AcDbSavedByObjectVersion
1070
     0
  0
VISUALSTYLE
  5
665B
102
{ACAD_REACTORS
330
5FB9
102
}
330
5FB9
100
AcDbVisualStyle
  2

 70
    27
177
     3
291
     0
 70
    58
 90
        2
176
     1
 90
        2
176
     1
 90
        1
176
     1
 90
        2
176
     1
 40
0.6
176
     1
 40
30.0
176
     1
 62
     7
176
     1
 90
        0
176
     1
 90
        4
176
     1
 62
     7
176
     1
 62
   257
176
     1
 90
        1
176
     1
 90
        1
176
     1
 40
1.0
176
     1
 90
        8
176
     1
 62
   257
176
     1
 40
1.0
176
     1
 90
        1
176
     1
 90
        6
176
     1
 90
        2
176
     1
 62
     8
176
     1
 90
        3
176
     1
 90
        0
176
     1
 90
        0
176
     1
290
     0
176
     1
 90
        5
176
     1
 40
0.0
176
     1
 90
        0
176
     1
290
     0
176
     1
290
     1
176
     1
290
     1
176
     1
290
     0
176
     1
290
     0
176
     1
290
     0
176
     1
290
     0
176
     1
290
     0
176
     1
290
     0
176
     1
 90
       50
176
     1
 40
0.0
176
     1
 40
1.0
176
     1
 90
        0
176
     1
 62
    18
420
        0
176
     1
 90
       50
176
     1
 90
        3
176
     1
 62
     5
420
      255
176
     1
290
     0
176
     1
 90
       50
176
     1
 90
       50
176
     1
 90
       50
176
     1
290
     0
176
     1
 90
       50
176
     1
 62
   256
176
     0
 40
1.0
176
     0
 90
        2
176
     1
  1
strokes_ogs.tif
176
     1
290
     0
176
     1
 40
1.0
176
     1
 40
1.0
176
     1
1001
ACAD
1000
AcDbSavedByObjectVersion
1070
     0
  0
VISUALSTYLE
  5
665A
102
{ACAD_REACTORS
330
5FB9
102
}
330
5FB9
100
AcDbVisualStyle
  2

 70
    26
177
     3
291
     0
 70
    58
 90
        2
176
     1
 90
        2
176
     1
 90
        1
176
     1
 90
        2
176
     1
 40
0.6
176
     1
 40
30.0
176
     1
 62
     7
176
     1
 90
        1
176
     1
 90
        2
176
     1
 62
     7
176
     1
 62
   257
176
     1
 90
        2
176
     1
 90
        1
176
     1
 40
1.0
176
     1
 90
        8
176
     1
 62
   257
176
     1
 40
1.0
176
     1
 90
        1
176
     1
 90
        6
176
     1
 90
        2
176
     1
 62
     7
176
     1
 90
        3
176
     1
 90
        0
176
     1
 90
        0
176
     1
290
     0
176
     1
 90
        5
176
     1
 40
0.0
176
     1
 90
        0
176
     1
290
     0
176
     1
290
     1
176
     1
290
     1
176
     1
290
     0
176
     1
290
     0
176
     1
290
     0
176
     1
290
     0
176
     1
290
     0
176
     1
290
     0
176
     1
 90
       50
176
     1
 40
0.0
176
     1
 40
1.0
176
     1
 90
        0
176
     1
 62
    18
420
        0
176
     1
 90
       50
176
     1
 90
        3
176
     1
 62
     5
420
      255
176
     1
290
     0
176
     1
 90
       50
176
     1
 90
       50
176
     1
 90
       50
176
     1
290
     0
176
     1
 90
       50
176
     1
 62
   256
176
     0
 40
1.0
176
     0
 90
        2
176
     1
  1
strokes_ogs.tif
176
     1
290
     0
176
     1
 40
1.0
176
     1
 40
1.0
176
     1
1001
ACAD
1000
AcDbSavedByObjectVersion
1070
     0
  0
VISUALSTYLE
  5
6657
102
{ACAD_REACTORS
330
5FB9
102
}
330
5FB9
100
AcDbVisualStyle
  2

 70
    23
177
     3
291
     0
 70
    58
 90
        2
176
     1
 90
        2
176
     1
 90
        3
176
     1
 90
        0
176
     1
 40
0.6
176
     1
 40
30.0
176
     1
 62
     7
176
     1
 90
        2
176
     1
 90
        2
176
     1
 62
     7
176
     1
 62
     7
176
     1
 90
        1
176
     1
 90
        1
176
     1
 40
40.0
176
     1
 90
        8
176
     1
 62
     7
176
     1
 40
1.0
176
     1
 90
        1
176
     1
 90
        6
176
     1
 90
        2
176
     1
 62
     7
176
     1
 90
        3
176
     1
 90
        0
176
     1
 90
        0
176
     1
290
     0
176
     1
 90
        1
176
     1
 40
0.0
176
     1
 90
        0
176
     1
290
     0
176
     1
290
     1
176
     1
290
     1
176
     1
290
     0
176
     1
290
     0
176
     1
290
     0
176
     1
290
     0
176
     1
290
     0
176
     1
290
     0
176
     1
 90
       50
176
     1
 40
0.0
176
     1
 40
1.0
176
     1
 90
        0
176
     1
 62
    18
420
        0
176
     1
 90
       50
176
     1
 90
        3
176
     1
 62
     5
420
      255
176
     1
290
     0
176
     1
 90
       50
176
     1
 90
       50
176
     1
 90
       50
176
     1
290
     0
176
     1
 90
       50
176
     1
 62
   256
176
     0
 40
1.0
176
     0
 90
        2
176
     1
  1
strokes_ogs.tif
176
     1
290
     0
176
     1
 40
1.0
176
     1
 40
1.0
176
     1
1001
ACAD
1000
AcDbSavedByObjectVersion
1070
     0
  0
VISUALSTYLE
  5
6658
102
{ACAD_REACTORS
330
5FB9
102
}
330
5FB9
100
AcDbVisualStyle
  2

 70
    24
177
     3
291
     0
 70
    58
 90
        1
176
     1
 90
        2
176
     1
 90
        2
176
     1
 90
        0
176
     1
 40
0.6
176
     1
 40
30.0
176
     1
 62
     7
176
     1
 90
        2
176
     1
 90
        2
176
     1
 62
     7
176
     1
 62
     7
176
     1
 90
        1
176
     1
 90
        1
176
     1
 40
40.0
176
     1
 90
       11
176
     1
 62
     7
176
     1
 40
1.0
176
     1
 90
        1
176
     1
 90
        6
176
     1
 90
        2
176
     1
 62
     7
176
     1
 90
        6
176
     1
 90
        0
176
     1
 90
        0
176
     1
290
     0
176
     1
 90
        1
176
     1
 40
0.0
176
     1
 90
        0
176
     1
290
     0
176
     1
290
     1
176
     1
290
     1
176
     1
290
     0
176
     1
290
     0
176
     1
290
     0
176
     1
290
     0
176
     1
290
     0
176
     1
290
     0
176
     1
 90
       50
176
     1
 40
0.0
176
     1
 40
1.0
176
     1
 90
        0
176
     1
 62
    18
420
        0
176
     1
 90
       50
176
     1
 90
        3
176
     1
 62
     5
420
      255
176
     1
290
     0
176
     1
 90
       50
176
     1
 90
       50
176
     1
 90
       50
176
     1
290
     0
176
     1
 90
       50
176
     1
 62
   256
176
     0
 40
1.0
176
     0
 90
        2
176
     1
  1
strokes_ogs.tif
176
     1
290
     0
176
     1
 40
1.0
176
     1
 40
1.0
176
     1
1001
ACAD
1000
AcDbSavedByObjectVersion
1070
     0
  0
VISUALSTYLE
  5
5FC6
102
{ACAD_REACTORS
330
5FB9
102
}
330
5FB9
100
AcDbVisualStyle
  2

 70
    13
177
     3
291
     1
 70
    58
 90
        2
176
     1
 90
        2
176
     1
 90
        0
176
     1
 90
        0
176
     1
 40
0.6
176
     1
 40
30.0
176
     1
 62
     7
176
     1
 90
        1
176
     1
 90
        4
176
     1
 62
     7
176
     1
 62
   257
176
     1
 90
        1
176
     1
 90
        1
176
     1
 40
1.0
176
     1
 90
       12
176
     1
 62
     7
176
     1
 40
1.0
176
     1
 90
        1
176
     1
 90
        6
176
     1
 90
        2
176
     1
 62
     7
176
     1
 90
        5
176
     1
 90
        0
176
     1
 90
        0
176
     1
290
     0
176
     1
 90
        1
176
     1
 40
0.0
176
     1
 90
        0
176
     1
290
     0
176
     1
290
     1
176
     1
290
     1
176
     1
290
     0
176
     1
290
     0
176
     1
290
     0
176
     1
290
     0
176
     1
290
     0
176
     1
290
     0
176
     1
 90
       50
176
     1
 40
0.0
176
     1
 40
1.0
176
     1
 90
        0
176
     1
 62
    18
420
        0
176
     1
 90
       50
176
     1
 90
        3
176
     1
 62
     5
420
      255
176
     1
290
     0
176
     1
 90
       50
176
     1
 90
       50
176
     1
 90
       50
176
     1
290
     0
176
     1
 90
       50
176
     1
 62
   256
176
     0
 40
1.0
176
     0
 90
        2
176
     1
  1
strokes_ogs.tif
176
     1
290
     0
176
     1
 40
1.0
176
     1
 40
1.0
176
     1
1001
ACAD
1000
AcDbSavedByObjectVersion
1070
     0
  0
VISUALSTYLE
  5
6655
102
{ACAD_REACTORS
330
5FB9
102
}
330
5FB9
100
AcDbVisualStyle
  2

 70
     5
177
     3
291
     0
 70
    58
 90
        0
176
     1
 90
        2
176
     1
 90
        0
176
     1
 90
        0
176
     1
 40
0.6
176
     1
 40
30.0
176
     1
 62
     7
176
     1
 90
        1
176
     1
 90
        4
176
     1
 62
     7
176
     1
 62
   257
176
     1
 90
        1
176
     1
 90
        1
176
     1
 40
1.0
176
     1
 90
        0
176
     1
 62
   257
176
     1
 40
1.0
176
     1
 90
        1
176
     1
 90
        6
176
     1
 90
        2
176
     1
 62
     7
176
     1
 90
        3
176
     1
 90
        0
176
     1
 90
        0
176
     1
290
     0
176
     1
 90
        1
176
     1
 40
0.0
176
     1
 90
        0
176
     1
290
     0
176
     1
290
     1
176
     1
290
     1
176
     1
290
     0
176
     1
290
     0
176
     1
290
     0
176
     1
290
     0
176
     1
290
     0
176
     1
290
     0
176
     1
 90
       50
176
     1
 40
0.0
176
     1
 40
1.0
176
     1
 90
        0
176
     1
 62
    18
420
        0
176
     1
 90
       50
176
     1
 90
        3
176
     1
 62
     5
420
      255
176
     1
290
     0
176
     1
 90
       50
176
     1
 90
       50
176
     1
 90
       50
176
     1
290
     0
176
     1
 90
       50
176
     1
 62
   256
176
     0
 40
1.0
176
     0
 90
        2
176
     1
  1
strokes_ogs.tif
176
     1
290
     0
176
     1
 40
1.0
176
     1
 40
1.0
176
     1
1001
ACAD
1000
AcDbSavedByObjectVersion
1070
     0
  0
VISUALSTYLE
  5
6659
102
{ACAD_REACTORS
330
5FB9
102
}
330
5FB9
100
AcDbVisualStyle
  2

 70
    25
177
     3
291
     0
 70
    58
 90
        2
176
     1
 90
        2
176
     1
 90
        1
176
     1
 90
        1
176
     1
 40
0.5
176
     1
 40
30.0
176
     1
 62
     7
176
     1
 90
        1
176
     1
 90
        0
176
     1
 62
     7
176
     1
 62
   257
176
     1
 90
        1
176
     1
 90
        1
176
     1
 40
1.0
176
     1
 90
        8
176
     1
 62
     7
176
     1
 40
1.0
176
     1
 90
        1
176
     1
 90
        6
176
     1
 90
        2
176
     1
 62
     7
176
     1
 90
        3
176
     1
 90
        0
176
     1
 90
        0
176
     1
290
     0
176
     1
 90
       13
176
     1
 40
0.0
176
     1
 90
        0
176
     1
290
     0
176
     1
290
     1
176
     1
290
     1
176
     1
290
     0
176
     1
290
     0
176
     1
290
     0
176
     1
290
     0
176
     1
290
     0
176
     1
290
     0
176
     1
 90
       50
176
     1
 40
0.0
176
     1
 40
1.0
176
     1
 90
        0
176
     1
 62
    18
420
        0
176
     1
 90
       50
176
     1
 90
        3
176
     1
 62
     5
420
      255
176
     1
290
     0
176
     1
 90
       50
176
     1
 90
       50
176
     1
 90
       50
176
     1
290
     0
176
     1
 90
       50
176
     1
 62
   256
176
     0
 40
1.0
176
     0
 90
        2
176
     1
  1
strokes_ogs.tif
176
     1
290
     0
176
     1
 40
1.0
176
     1
 40
1.0
176
     1
1001
ACAD
1000
AcDbSavedByObjectVersion
1070
     0
  0
DICTIONARYVAR
  5
F3DC
102
{ACAD_REACTORS
330
F3D7
102
}
330
F3D7
100
DictionaryVariables
280
     0
  1
1:1
  0
DICTIONARYVAR
  5
F3D9
102
{ACAD_REACTORS
330
F3D7
102
}
330
F3D7
100
DictionaryVariables
280
     0
  1
STANDARD
  0
DICTIONARYVAR
  5
F3D8
102
{ACAD_REACTORS
330
F3D7
102
}
330
F3D7
100
DictionaryVariables
280
     0
  1
STANDARD
  0
DICTIONARYVAR
  5
F3DA
102
{ACAD_REACTORS
330
F3D7
102
}
330
F3D7
100
DictionaryVariables
280
     0
  1
Imperial24
  0
DICTIONARYVAR
  5
F3DB
102
{ACAD_REACTORS
330
F3D7
102
}
330
F3D7
100
DictionaryVariables
280
     0
  1
Imperial24
  0
DICTIONARYVAR
  5
F3ED
102
{ACAD_REACTORS
330
F3D7
102
}
330
F3D7
100
DictionaryVariables
280
     0
  1
1
  0
DICTIONARYVAR
  5
F3EE
102
{ACAD_REACTORS
330
F3D7
102
}
330
F3D7
100
DictionaryVariables
280
     0
  1
15
  0
DICTIONARYVAR
  5
F3EC
102
{ACAD_REACTORS
330
F3D7
102
}
330
F3D7
100
DictionaryVariables
280
     0
  1
0
  0
DICTIONARYVAR
  5
F3EB
102
{ACAD_REACTORS
330
F3D7
102
}
330
F3D7
100
DictionaryVariables
280
     0
  1
0
  0
DICTIONARY
  5
F6E4
102
{ACAD_REACTORS
330
F6E2
102
}
330
F6E2
100
AcDbDictionary
281
     1
  0
DICTIONARY
  5
F6E3
102
{ACAD_REACTORS
330
F6E2
102
}
330
F6E2
100
AcDbDictionary
281
     1
  3
1651615365456
350
F6DD
  3
1651615365472
350
F6DE
  3
1651615365488
350
F6DF
  3
1651615365504
350
F6E0
  3
1651615365520
350
F6E1
  0
DICTIONARY
  5
F6E7
330
6662
100
AcDbDictionary
280
     1
281
     1
  3
ACAD_XREC_ROUNDTRIP
360
F6E8
  0
DICTIONARY
  5
F2
330
21
100
AcDbDictionary
280
     1
281
     1
  0
DICTIONARY
  5
668A
330
20
100
AcDbDictionary
280
     1
281
     1
  0
DICTIONARY
  5
5FAA
330
5FA9
100
AcDbDictionary
280
     1
281
     1
  3
BUMPTILE
360
5FAC
  3
DIFFUSETILE
360
5FAB
  3
OPACITYTILE
360
5FAF
  3
REFLECTIONTILE
360
5FAE
  3
REFRACTIONTILE
360
5FB0
  3
SPECULARTILE
360
5FAD
  0
DICTIONARY
  5
5FA2
330
5FA1
100
AcDbDictionary
280
     1
281
     1
  3
BUMPTILE
360
5FA4
  3
DIFFUSETILE
360
5FA3
  3
OPACITYTILE
360
5FA7
  3
REFLECTIONTILE
360
5FA6
  3
REFRACTIONTILE
360
5FA8
  3
SPECULARTILE
360
5FA5
  0
DICTIONARY
  5
5FB2
330
5FB1
100
AcDbDictionary
280
     1
281
     1
  3
BUMPTILE
360
5FB4
  3
DIFFUSETILE
360
5FB3
  3
OPACITYTILE
360
5FB7
  3
REFLECTIONTILE
360
5FB6
  3
REFRACTIONTILE
360
5FB8
  3
SPECULARTILE
360
5FB5
  0
DICTIONARY
  5
F6E5
330
6660
100
AcDbDictionary
280
     1
281
     1
  3
ACAD_XREC_ROUNDTRIP
360
F6E6
  0
DICTIONARY
  5
6034
330
63
100
AcDbDictionary
280
     1
281
     1
  3
ACAD_ROUNDTRIP_2008_TABLESTYLE_CELLSTYLEMAP
360
F6D5
  0
XRECORD
  5
F6DD
102
{ACAD_REACTORS
330
F6E3
102
}
330
F6E3
100
AcDbXrecord
280
     1
  1
AcDb_Thumbnail_Schema
102
{ATTRRECORD
341
F6DE
  2
AcDbDs::TreatedAsObjectData
280
     1
291
     1
102
ATTRRECORD}
102
{ATTRRECORD
341
F6DF
  2
AcDbDs::Legacy
280
     1
291
     1
102
ATTRRECORD}
  2
AcDbDs::ID
280
    10
 91
        8
102
{ATTRRECORD
341
F6E0
  2
AcDs:Indexable
280
     1
291
     1
102
ATTRRECORD}
102
{ATTRRECORD
341
F6E1
  2
AcDbDs::HandleAttribute
280
     7
282
     1
102
ATTRRECORD}
  2
Thumbnail_Data
280
    15
 91
        0
  0
XRECORD
  5
F6DE
102
{ACAD_REACTORS
330
F6E3
102
}
330
F6E3
100
AcDbXrecord
280
     1
  1
AcDbDs::TreatedAsObjectDataSchema
  2
AcDbDs::TreatedAsObjectData
280
     1
 91
        0
  0
XRECORD
  5
F6DF
102
{ACAD_REACTORS
330
F6E3
102
}
330
F6E3
100
AcDbXrecord
280
     1
  1
AcDbDs::LegacySchema
  2
AcDbDs::Legacy
280
     1
 91
        0
  0
XRECORD
  5
F6E0
102
{ACAD_REACTORS
330
F6E3
102
}
330
F6E3
100
AcDbXrecord
280
     1
  1
AcDbDs::IndexedPropertySchema
  2
AcDs:Indexable
280
     1
 91
        0
  0
XRECORD
  5
F6E1
102
{ACAD_REACTORS
330
F6E3
102
}
330
F6E3
100
AcDbXrecord
280
     1
  1
AcDbDs::HandleAttributeSchema
  2
AcDbDs::HandleAttribute
280
     7
 91
        1
284
     1
  0
XRECORD
  5
F6E8
102
{ACAD_REACTORS
330
F6E7
102
}
330
F6E7
100
AcDbXrecord
280
     1
102
DISPLAYNAME
  1
Imperial24
102
FLAGS
 90
        0
  0
XRECORD
  5
5FAC
102
{ACAD_REACTORS
330
5FAA
102
}
330
5FAA
100
AcDbXrecord
280
     1
270
     1
271
     1
  0
XRECORD
  5
5FAB
102
{ACAD_REACTORS
330
5FAA
102
}
330
5FAA
100
AcDbXrecord
280
     1
270
     1
271
     1
  0
XRECORD
  5
5FAF
102
{ACAD_REACTORS
330
5FAA
102
}
330
5FAA
100
AcDbXrecord
280
     1
270
     1
271
     1
  0
XRECORD
  5
5FAE
102
{ACAD_REACTORS
330
5FAA
102
}
330
5FAA
100
AcDbXrecord
280
     1
270
     1
271
     1
  0
XRECORD
  5
5FB0
102
{ACAD_REACTORS
330
5FAA
102
}
330
5FAA
100
AcDbXrecord
280
     1
270
     1
271
     1
  0
XRECORD
  5
5FAD
102
{ACAD_REACTORS
330
5FAA
102
}
330
5FAA
100
AcDbXrecord
280
     1
270
     1
271
     1
  0
XRECORD
  5
5FA4
102
{ACAD_REACTORS
330
5FA2
102
}
330
5FA2
100
AcDbXrecord
280
     1
270
     1
271
     1
  0
XRECORD
  5
5FA3
102
{ACAD_REACTORS
330
5FA2
102
}
330
5FA2
100
AcDbXrecord
280
     1
270
     1
271
     1
  0
XRECORD
  5
5FA7
102
{ACAD_REACTORS
330
5FA2
102
}
330
5FA2
100
AcDbXrecord
280
     1
270
     1
271
     1
  0
XRECORD
  5
5FA6
102
{ACAD_REACTORS
330
5FA2
102
}
330
5FA2
100
AcDbXrecord
280
     1
270
     1
271
     1
  0
XRECORD
  5
5FA8
102
{ACAD_REACTORS
330
5FA2
102
}
330
5FA2
100
AcDbXrecord
280
     1
270
     1
271
     1
  0
XRECORD
  5
5FA5
102
{ACAD_REACTORS
330
5FA2
102
}
330
5FA2
100
AcDbXrecord
280
     1
270
     1
271
     1
  0
XRECORD
  5
5FB4
102
{ACAD_REACTORS
330
5FB2
102
}
330
5FB2
100
AcDbXrecord
280
     1
270
     1
271
     1
  0
XRECORD
  5
5FB3
102
{ACAD_REACTORS
330
5FB2
102
}
330
5FB2
100
AcDbXrecord
280
     1
270
     1
271
     1
  0
XRECORD
  5
5FB7
102
{ACAD_REACTORS
330
5FB2
102
}
330
5FB2
100
AcDbXrecord
280
     1
270
     1
271
     1
  0
XRECORD
  5
5FB6
102
{ACAD_REACTORS
330
5FB2
102
}
330
5FB2
100
AcDbXrecord
280
     1
270
     1
271
     1
  0
XRECORD
  5
5FB8
102
{ACAD_REACTORS
330
5FB2
102
}
330
5FB2
100
AcDbXrecord
280
     1
270
     1
271
     1
  0
XRECORD
  5
5FB5
102
{ACAD_REACTORS
330
5FB2
102
}
330
5FB2
100
AcDbXrecord
280
     1
270
     1
271
     1
  0
XRECORD
  5
F6E6
102
{ACAD_REACTORS
330
F6E5
102
}
330
F6E5
100
AcDbXrecord
280
     1
102
DISPLAYNAME
  1
Imperial24
102
FLAGS
 90
        0
  0
CELLSTYLEMAP
  5
F6D5
102
{ACAD_REACTORS
330
6034
102
}
330
6034
100
AcDbCellStyleMap
 90
        3
300
CELLSTYLE
  1
TABLEFORMAT_BEGIN
 90
        5
170
     1
 91
        0
 92
    32768
 62
   257
 93
        1
300
CONTENTFORMAT
  1
CONTENTFORMAT_BEGIN
 90
        0
 91
        0
 92
        4
 93
        0
300

 40
0.0
140
1.0
 94
        5
 62
     0
340
17
144
0.25
309
CONTENTFORMAT_END
171
     1
301
MARGIN
  1
CELLMARGIN_BEGIN
 40
0.06
 40
0.06
 40
0.06
 40
0.06
 40
0.18
 40
0.18
309
CELLMARGIN_END
 94
        6
 95
        1
302
GRIDFORMAT
  1
GRIDFORMAT_BEGIN
 90
        0
 91
        1
 62
     0
 92
       -2
340
0
 93
        0
 40
0.045
309
GRIDFORMAT_END
 95
        2
302
GRIDFORMAT
  1
GRIDFORMAT_BEGIN
 90
        0
 91
        1
 62
     0
 92
       -2
340
0
 93
        0
 40
0.045
309
GRIDFORMAT_END
 95
        4
302
GRIDFORMAT
  1
GRIDFORMAT_BEGIN
 90
        0
 91
        1
 62
     0
 92
       -2
340
0
 93
        0
 40
0.045
309
GRIDFORMAT_END
 95
        8
302
GRIDFORMAT
  1
GRIDFORMAT_BEGIN
 90
        0
 91
        1
 62
     0
 92
       -2
340
0
 93
        0
 40
0.045
309
GRIDFORMAT_END
 95
       16
302
GRIDFORMAT
  1
GRIDFORMAT_BEGIN
 90
        0
 91
        1
 62
     0
 92
       -2
340
0
 93
        0
 40
0.045
309
GRIDFORMAT_END
 95
       32
302
GRIDFORMAT
  1
GRIDFORMAT_BEGIN
 90
        0
 91
        1
 62
     0
 92
       -2
340
0
 93
        0
 40
0.045
309
GRIDFORMAT_END
309
TABLEFORMAT_END
  1
CELLSTYLE_BEGIN
 90
        1
 91
        1
300
_TITLE
309
CELLSTYLE_END
300
CELLSTYLE
  1
TABLEFORMAT_BEGIN
 90
        5
170
     1
 91
        0
 92
        0
 62
   257
 93
        1
300
CONTENTFORMAT
  1
CONTENTFORMAT_BEGIN
 90
        0
 91
        0
 92
        4
 93
        0
300

 40
0.0
140
1.0
 94
        5
 62
     0
340
17
144
0.18
309
CONTENTFORMAT_END
171
     1
301
MARGIN
  1
CELLMARGIN_BEGIN
 40
0.06
 40
0.06
 40
0.06
 40
0.06
 40
0.18
 40
0.18
309
CELLMARGIN_END
 94
        6
 95
        1
302
GRIDFORMAT
  1
GRIDFORMAT_BEGIN
 90
        0
 91
        1
 62
     0
 92
       -2
340
0
 93
        0
 40
0.045
309
GRIDFORMAT_END
 95
        2
302
GRIDFORMAT
  1
GRIDFORMAT_BEGIN
 90
        0
 91
        1
 62
     0
 92
       -2
340
0
 93
        0
 40
0.045
309
GRIDFORMAT_END
 95
        4
302
GRIDFORMAT
  1
GRIDFORMAT_BEGIN
 90
        0
 91
        1
 62
     0
 92
       -2
340
0
 93
        0
 40
0.045
309
GRIDFORMAT_END
 95
        8
302
GRIDFORMAT
  1
GRIDFORMAT_BEGIN
 90
        0
 91
        1
 62
     0
 92
       -2
340
0
 93
        0
 40
0.045
309
GRIDFORMAT_END
 95
       16
302
GRIDFORMAT
  1
GRIDFORMAT_BEGIN
 90
        0
 91
        1
 62
     0
 92
       -2
340
0
 93
        0
 40
0.045
309
GRIDFORMAT_END
 95
       32
302
GRIDFORMAT
  1
GRIDFORMAT_BEGIN
 90
        0
 91
        1
 62
     0
 92
       -2
340
0
 93
        0
 40
0.045
309
GRIDFORMAT_END
309
TABLEFORMAT_END
  1
CELLSTYLE_BEGIN
 90
        2
 91
        1
300
_HEADER
309
CELLSTYLE_END
300
CELLSTYLE
  1
TABLEFORMAT_BEGIN
 90
        5
170
     1
 91
        0
 92
        0
 62
   257
 93
        1
300
CONTENTFORMAT
  1
CONTENTFORMAT_BEGIN
 90
        0
 91
        0
 92
        4
 93
        0
300

 40
0.0
140
1.0
 94
        2
 62
     0
340
17
144
0.18
309
CONTENTFORMAT_END
171
     1
301
MARGIN
  1
CELLMARGIN_BEGIN
 40
0.06
 40
0.06
 40
0.06
 40
0.06
 40
0.18
 40
0.18
309
CELLMARGIN_END
 94
        6
 95
        1
302
GRIDFORMAT
  1
GRIDFORMAT_BEGIN
 90
        0
 91
        1
 62
     0
 92
       -2
340
0
 93
        0
 40
0.045
309
GRIDFORMAT_END
 95
        2
302
GRIDFORMAT
  1
GRIDFORMAT_BEGIN
 90
        0
 91
        1
 62
     0
 92
       -2
340
0
 93
        0
 40
0.045
309
GRIDFORMAT_END
 95
        4
302
GRIDFORMAT
  1
GRIDFORMAT_BEGIN
 90
        0
 91
        1
 62
     0
 92
       -2
340
0
 93
        0
 40
0.045
309
GRIDFORMAT_END
 95
        8
302
GRIDFORMAT
  1
GRIDFORMAT_BEGIN
 90
        0
 91
        1
 62
     0
 92
       -2
340
0
 93
        0
 40
0.045
309
GRIDFORMAT_END
 95
       16
302
GRIDFORMAT
  1
GRIDFORMAT_BEGIN
 90
        0
 91
        1
 62
     0
 92
       -2
340
0
 93
        0
 40
0.045
309
GRIDFORMAT_END
 95
       32
302
GRIDFORMAT
  1
GRIDFORMAT_BEGIN
 90
        0
 91
        1
 62
     0
 92
       -2
340
0
 93
        0
 40
0.045
309
GRIDFORMAT_END
309
TABLEFORMAT_END
  1
CELLSTYLE_BEGIN
 90
        3
 91
        2
300
_DATA
309
CELLSTYLE_END
  0
ENDSEC
  0
SECTION
  2
ACDSDATA
 70
     2
 71
     8
  0
ACDSSCHEMA
 90
        0
  1
AcDb_Thumbnail_Schema
  2
AcDbDs::ID
280
    10
 91
        8
  2
Thumbnail_Data
280
    15
 91
        0
101
ACDSRECORD
 95
        0
 90
        1
  2
AcDbDs::TreatedAsObjectData
280
     1
291
     1
101
ACDSRECORD
 95
        0
 90
        2
  2
AcDbDs::Legacy
280
     1
291
     1
101
ACDSRECORD
  1
AcDbDs::ID
 90
        3
  2
AcDs:Indexable
280
     1
291
     1
101
ACDSRECORD
  1
AcDbDs::ID
 90
        4
  2
AcDbDs::HandleAttribute
280
     7
282
     1
  0
ACDSSCHEMA
 90
        1
  1
AcDbDs::TreatedAsObjectDataSchema
  2
AcDbDs::TreatedAsObjectData
280
     1
 91
        0
  0
ACDSSCHEMA
 90
        2
  1
AcDbDs::LegacySchema
  2
AcDbDs::Legacy
280
     1
 91
        0
  0
ACDSSCHEMA
 90
        3
  1
AcDbDs::IndexedPropertySchema
  2
AcDs:Indexable
280
     1
 91
        0
  0
ACDSSCHEMA
 90
        4
  1
AcDbDs::HandleAttributeSchema
  2
AcDbDs::HandleAttribute
280
     7
 91
        1
284
     1
  0
ACDSRECORD
 90
        0
  2
AcDbDs::ID
280
    10
320
21
  2
Thumbnail_Data
280
    15
 94
     3013
310
89504E470D0A1A0A0000000D49484452000000C500000100080300000034B4427100000300504C5445FFFFFFFFFFFFFFFFFF0000000000000000000000000000000000000000000000000000330000660000990000CC0000FF0033000033330033660033990033CC0033FF0066000066330066660066990066CC0066FF0099
310
000099330099660099990099CC0099FF00CC0000CC3300CC6600CC9900CCCC00CCFF00FF0000FF3300FF6600FF9900FFCC00FFFF3300003300333300663300993300CC3300FF3333003333333333663333993333CC3333FF3366003366333366663366993366CC3366FF3399003399333399663399993399CC3399FF33CC00
310
33CC3333CC6633CC9933CCCC33CCFF33FF0033FF3333FF6633FF9933FFCC33FFFF6600006600336600666600996600CC6600FF6633006633336633666633996633CC6633FF6666006666336666666666996666CC6666FF6699006699336699666699996699CC6699FF66CC0066CC3366CC6666CC9966CCCC66CCFF66FF0066
310
FF3366FF6666FF9966FFCC66FFFF9900009900339900669900999900CC9900FF9933009933339933669933999933CC9933FF9966009966339966669966999966CC9966FF9999009999339999669999999999CC9999FF99CC0099CC3399CC6699CC9999CCCC99CCFF99FF0099FF3399FF6699FF9999FFCC99FFFFCC0000CC00
310
33CC0066CC0099CC00CCCC00FFCC3300CC3333CC3366CC3399CC33CCCC33FFCC6600CC6633CC6666CC6699CC66CCCC66FFCC9900CC9933CC9966CC9999CC99CCCC99FFCCCC00CCCC33CCCC66CCCC99CCCCCCCCCCFFCCFF00CCFF33CCFF66CCFF99CCFFCCCCFFFFFF0000FF0033FF0066FF0099FF00CCFF00FFFF3300FF3333
310
FF3366FF3399FF33CCFF33FFFF6600FF6633FF6666FF6699FF66CCFF66FFFF9900FF9933FF9966FF9999FF99CCFF99FFFFCC00FFCC33FFCC66FFCC99FFCCCCFFCCFFFFFF00FFFF33FFFF66FFFF99FFFFCCFFFFFF0000000D0D0D1A1A1A2828283535354343435050505D5D5D6B6B6B787878868686939393A1A1A1AEAEAEBB
310
BBBBC9C9C9D6D6D6E4E4E4F1F1F1FFFFFF000000000000000000000000000000000000000000000000000000000000AD4AB4E40000082E4944415478DAED9DB172DB38108677C6EF735D3ABD48D28469C217911AF39AF045A8C64813BD887C8567EB9BB95738C8B22490048105B04B0B9AE58C6D2A62287EDCFF5F004B5084
310
7F1F618107A180FA970F0AB44BB5BF3F28B0EA405C29AA5EE01162F12014A8144AA1140FEA6ECD514AA1149AA3944215A5144AA1EED61CA5144AA1149AA3EE5C51FFD4BBB814D5464229EE8A02944215A5144AA1EE560AF585522885E62855D478EC789E5BA21442141BC1E362D83791C29EDE8DCCC212399ABB71235883D9
310
AC96A3042960B39E2F944229B41FE5A6D8533A847B9D7C4ACD51E78D9DFF811048F0F62D7CDF18E335F8F76DDF7787E28A429851C012079E8FFF4C103B36BCC012B695A1F07E2EDEDEC10F9810048C68519662E3A798715C5FBAF18884021DE51585239F62F4C1EE2ADCAC1161C0F38C7D2CE688BA3B4001DECFBFFA9B4081
310
81FDAC47E11B4D507C81B32486BE9DAFA2A84BBAC405DB46522C2EE586B529961415CCB4B77C0C5C1C02EE8E280A61D1FB8899B212C9B41ED9DFFA0C18D25B663872DD1D68F57C67FB4641915B32471E45B00782816D1063D6CF92558EA262BDC1655FB87DA7601E4E0C470645BCC3BC74BA1143DE2E90553A45B4A6B128FD
310
206191AC042896322D22103BEDC9B24A7737E1E3FDE71B811C8A54594950F84FB8936689BBA373ACA5283779D16D4BED234AB8DBDB6545A7EF8149A784100EB91C35ED7823D0D26C0E8798A2469F3B32766A278990754572D4F4689134EC28C8BA2B64DA3C6327C94ABEEDBEF49DCA2E958565259F696FB584B22260281CE2
310
99F652120184C222604056548AA53A6F4C51E844A3B808B8C891E56EEFC86136227500006FB66090D5EC00A814E81B62FB29E66D1C3A2020212BB2A212289C9E06C2DC25021C6477E358F894B67B8481375A2E7B885280CF17388A1A8B3D7228605C6FA264DAABAC26598DC91E9893A3E8145708742434DFA6545659144E96
310
A3F802C3654EB66C95DA76E39487A0A850E5AA84631260090A475118DB30AFA78E05FD28F46487A0A2627D95BC7078B617A080714BCDCE8185A3240442C90EDDEE5F9C23595608EB50B8230AC2C5FBB470308C2F28F5A1F128899D632D8AC9B89B525BA6F711317DC47A3A491914933A013D1C047B3050D07C31AF3B31CA0A
310
D32B3979140B17E559B22E423105B5BDF0559E98B26E4E25278F62A192C922ABF27A14BD37B830B3A89C03D7A4589C599490755342914E411A2505AF771784038BABCDE4B15EB8C25FC281B01E45ACC44FE1F036E6C1CA3F7B0D245AE38FDBC3D798E3AA1494B96AE9B2C2C8B5A4FCDAA0B7004DBB6894C811D95682827611
310
32A5AF1BDBB0A866EEA740005AC78E1A0ED2557B48BF7E119BC44EBC964AE4E09B7BE029E67BAAFB39933D081C6C1440C6C0B4ABA9F1A9DC849D24559BE318489E2D4F0E072F0509235551710ED69945A3F38DA342EC682D5951310ED25EC89936EA6A072363BE072ECD13A652507D81348CCC091F9E09EBF4B90A296D370D
310
03B32610CD38926AB77957ED53EFE14A97150ACF0A9E7EE6F2F1A6735CC3213E43DBF9C0E83D5ED91C89FF2F9F62640A6E8E748A1C4579E6936341DBEB1FE8AD4131BB45922D1C6BDC45E2346CD3C68D894394C233A57F5E8EE538B02C0A48A408CEF0E508C71A14B3161BB83956F0058E7A1C8809C74BE590A7180F25526D
310
80F741319EE01BBD452A2F1CC214676BA33BBF4E8243D4DD4EF79CD4B8667308E7A8AB1DB0E4E234A56A28A62874BBE2C47E675E38042926E36ED254954C0E390A9CB61182B292A470FB8090C2911C0E41775F8D8DC915ED540EC91CE56BE764EC21AC28EF156C7E7B08504C6E3D5F185EB286839FE236333D3CC397535612
310
14D76FA20BCEF005460E0177D35A07AAAC48F610A0B8D501831C9CB21270B7B3E3F095533E59C952DC6E209495953045F48BB77864254E41B047B9AC24DD0D9302821CC72A14C09675D92EDF242B8A262B94A912F052F064DDCFA760C8BA8C5F3F9C4D519E7579292093A25456F742119B0D179415DE87A2A8F6601B5DCB51
310
4467D72DC98AF5ABC5CB2968B24249080E8A9CACCBFC25EF65EECECCBAECDFA0CF44919275051E03C0A2A8047BC83CC9808F82620FA9671E705290B26E05141159893D7E82CDDD040EB96768B0532CDF0C87A214C84CB1100EC9C7AC48507838849F15234331C9BAE28FBB91A218655DF147F608B87B262BF9E70E09525C39
310
56A1907C8A07AEF30C287D329D527C8ABB954215C547F15F64A984E2FD77B7D9365BB03F5FBE354DDBD87568CF6F7FD64392B228B687975F4D6F3A73688C3147F31D9EEF89024814BBC6F45F3BD36F61D7EEFBA6DDB7C7B6328AB7F75874BF07635AD3BCFC3DB48DB1AF4FFF0E75F9E2E7F197E9F766D77F397456574373F1
310
455514CD6138BC9897EEF9E9ADB3BEE89A8B2F6AA2D835C7FEE48D5DF3D40FE66BBB37DBAEC2586CFF0CDDB331DD5F4FDFCD4B6FF3547BA1F87C7B937354D7DA588035B5F9F663308D8DC7B6460AEB8B0EDA170BF0DC5B5FF45FAFBEB80B0AA22FBA6D3BD8F67AD76EBB5DB77B5F7FAD8EA27FEE3A0B627FFDEABA8FF5AA62
310
D1EC0F70B8BEFCB9B3BF5ECFEB87D77A28BED806CEB4CF7DD7773F00BE3743F30C5BDB01B13F76BD1677B783190EFB7EB0A63EB9C1BE32E63080E987C3D0EF6BA178BBAEDA35E3AC57E50B7BC6B7FDAE355DF7E715B6FDBE1B4EE2EAF79B633F744355396A71A9A507627BB2437FECC1FE58771863FF1EAD474E7F87DFFBAA
310
FA51E7C5BC79DEBEDCA51B50C1E54E3FCF66B7FB6311C47B2027846367C715FD00831DED1D6BA388D540EE82A2B81EF518145A1B540AAD99DFBDA2EA5D1C0AA878518A3BA200A55045298552A8BB95427DA1144AA1394A15A5144AA1394A2954514AA1149FE1EEAA970B45F58BA57884E53128FE07E5BF38E219882E9E0000
310
000049454E44AE42608249454E44AE426082358A07A28046D114D5281A457377A368BE68148DA2C5A8A6A846D1285A8C6A144D518DA251DCC3DD556F678AEA3743F10CDB7350FC0F91766E759F4916120000000049454E44AE426082
  0
ACDSRECORD
 90
        0
  2
AcDbDs::ID
280
    10
320
20
  2
Thumbnail_Data
280
    15
 94
     2113
310
89504E470D0A1A0A0000000D49484452000001000000008808030000003F38C55500000300504C5445212830FFFFFF2128300000000000000000000000000000000000000000000000000000330000660000990000CC0000FF0033000033330033660033990033CC0033FF0066000066330066660066990066CC0066FF0099
310
000099330099660099990099CC0099FF00CC0000CC3300CC6600CC9900CCCC00CCFF00FF0000FF3300FF6600FF9900FFCC00FFFF3300003300333300663300993300CC3300FF3333003333333333663333993333CC3333FF3366003366333366663366993366CC3366FF3399003399333399663399993399CC3399FF33CC00
310
33CC3333CC6633CC9933CCCC33CCFF33FF0033FF3333FF6633FF9933FFCC33FFFF6600006600336600666600996600CC6600FF6633006633336633666633996633CC6633FF6666006666336666666666996666CC6666FF6699006699336699666699996699CC6699FF66CC0066CC3366CC6666CC9966CCCC66CCFF66FF0066
310
FF3366FF6666FF9966FFCC66FFFF9900009900339900669900999900CC9900FF9933009933339933669933999933CC9933FF9966009966339966669966999966CC9966FF9999009999339999669999999999CC9999FF99CC0099CC3399CC6699CC9999CCCC99CCFF99FF0099FF3399FF6699FF9999FFCC99FFFFCC0000CC00
310
33CC0066CC0099CC00CCCC00FFCC3300CC3333CC3366CC3399CC33CCCC33FFCC6600CC6633CC6666CC6699CC66CCCC66FFCC9900CC9933CC9966CC9999CC99CCCC99FFCCCC00CCCC33CCCC66CCCC99CCCCCCCCCCFFCCFF00CCFF33CCFF66CCFF99CCFFCCCCFFFFFF0000FF0033FF0066FF0099FF00CCFF00FFFF3300FF3333
310
FF3366FF3399FF33CCFF33FFFF6600FF6633FF6666FF6699FF66CCFF66FFFF9900FF9933FF9966FF9999FF99CCFF99FFFFCC00FFCC33FFCC66FFCC99FFCCCCFFCCFFFFFF00FFFF33FFFF66FFFF99FFFFCCFFFFFF0000000D0D0D1A1A1A2828283535354343435050505D5D5D6B6B6B787878868686939393A1A1A1AEAEAEBB
310
BBBBC9C9C9D6D6D6E4E4E4F1F1F1FFFFFF0000000000000000000000000000000000000000000000000000000000002E4550F1000003DC4944415478DAED9D4D92E2300C859D730D1799DDECB848CF66BCCB4560837B958BA466C125DE7EC24F888D253B69BAA75AB21E5D405314A02F922CCB0E386732994C2693C9643299
310
4C2693E925FDFD2FFACE00D4BC8901300006C00018000360000C800178E5B3ED403F0B00F7025005603274B7490532323D60FB0BEC0C801A00681CC025FCF1E912E601B8DF49521B70FB433E0044462A0881DD02C02D08AE776E08B2A1F18EA58A402280D9723CEA80273313F32B08640288CB9FDC03622440A51ED2E80169
310
F0E70EA22D075C8E3F96D077CBFF5106851E00D928903E760BFFE79CC0C7813800D4781E1F7138CAE5F9389006809AF2C5C6218F80721C2800105B0C474440140750EE016022A0900A74780090D8CF7748723A2A3CE01E0255FBA954A0C10330C7371BFF853810042099C5E61E00D48F3F1107F23C00B4072CF3DF1508A227
310
49F280A5FC8D674477E31F04D620889E241A403C0C3E0603542780492A901402F7F6075908C5F90F95096032A15600E0E101744780B75F1C809BF5200B2180488DE53C287014A001706DD19213481D06C10E835481C02380D3046029845623900600E51C305BC92128D9AF02C0323410D6D2D5B34C00C561301DDCCAD950E8
310
64A8580865E37B210E207536582C85D3074A7120B61FC001C8D701C83800FD020AA6C34417904700C12D317E9D9F3177CD63F24AE1792D68690238300B012027C17201B004B872AF5C00881C069121E03D804000D90058028569DF5385E06403A00980590C7C7202C85F1CADEFF82A2050B33F60296D0154C2BB341F920C60
310
B6DFB92D08F4004856805722D0B24768D90F82749F500D819E4D5240DE045E81400D00D05B63513356510838AE055E7402250050D8025046A003C0BCFE87ED08940078B4373723D01302A5EE6F211BCA07306F84A8B4773827100F603E65A6DEE1A21128F100F2C4885508E40358A2007527C8116801F061047A00B87C7994
310
45B0AE5F220E805B990AF0A1379100602502CD00D6C4019C6A007527D00EA086004E3D80220234018048050E2B4F99560280DA0CB9C97AF1001CB14BD8B505E0390EE09A03E09273C55B04F040B0DD7A2D001CB361BC2100CE413D00C96F62000CC0CB9F6DCBA6189D00BA2E78EFC3C1077FEA43777EFD3BA404023884A33F
310
F8B7FED0775D931E104EE18FBF5C9F9A04301DFD7DF8F1B3FFEDFDC5033E290664E58073EF7F4D8EE04393008EFBB7CEEFA7E3EF47DF2080E13C84E9E2FB7108616C1080EFA71CD08F531E3884B03FFAF63C200CE3302582E1FC3E0EE3FBD81C80314C7687EBE57ADB60129C741EAED797ABE6007CC1F7A90A9F0D360FA095
310
52F8AB7F62E85B0368FD87964C2693C96432994C2693C96412A17FC7B362921E55C05C0000000049454E44AE42608207302278C235588902606197CE4811C033E41F2B809C0E5F00140005C0DDB2B809ACEE2604A0AAAA4BA3C48BE4FC2265A3CEFA85E75F533C6E00F2A5FB235B71E56F8D3CB7190268B5022ECDA5E1FC55
310
73F8009099098897EE2AB9F823A47C936D86002E27555FF8E957DB70F12A9E6C02A0E103B4F76B4EE7964BDE6608A0AD5B219BDF356F5EB537C81080E0BC15ADBC8AABBEBDE50680ABEED6A94E555CA84A759F5F59013849294F42F28AF346E702A2E5FC9C9709DC2A55DDBA4ADEAA4A6B413FEBF23201D549FDA5EF2BD9BD
310
4BF54FFE555D5600E4C7EC9554FAF1A6EFF573A1724B84F47897EFFAFEC31756B945816FFA1753C40A22D9032825B1E401DCBF7D4403E087C7A39FFF3F58CAA8335D0CA0BC0000000049454E44AE426082
  0
ENDSEC
  0
EOF
